Важное объявление!
У Нас Все раздачи мультитрекерные, при нуле пиров в релизах, можете смело вставать на закачку!
 
Автор Сообщение

HUNTER

Стаж:
4 года 4 месяца
Сообщений:
56822

Репутация: 101

[+] [-]
Вне форума [Профиль] [ЛС]

[Digital-Tutors] Introduction to Substance Painter [2014, RUS]
Год выпуска: 2014
Сайт производителя: DigitalTutors.com
Автор: Eddie Russell
Продолжительность: 3:03:08
Тип раздаваемого материала: Видеоурок
Язык: Русский (перевод HunterWolf)
Описание:
Введение в Substance Painter 1.0.0
Этот курс посвящен Substance Painter и в нем мы рассмотрим основные возможности данной программы.
Рисование текстурных карт, обычно, связано со многими проблемами и неудобствами. Во-первых, нужно отрисовывать множество карт, во-вторых, внимательно следить, чтобы карты четко соответствовали друг другу, иначе вся работа пойдет насмарку.
Но Substance Painter, благодаря инновационным технологиям, избавляет нас от всех проблем, делая процесс рисования текстур легким, интуитивным и приятным. Мы можем рисовать в Substance Painter сразу же по всем текстурным картам, то есть наносить цельный материал, и кроме того, прогрессивный рендер интерактивно демонстрирует материал на модели во всей его полноте, с учетом любого выбранного освещения и окружения.
В начале курса мы поймем, как в Substance Painter создается, настраивается и сохраняется проект. Затем, мы разберемся с интерфейсом и навигацией программы. Так как Substance Painter отличается от всего, что мы знали раньше, то следующим шагом мы научимся эффективному стилю работы в нем. После этого, приступим к рисованию, в рамках физически корректной визуализации.
Разработка материала будет постепенной-пошаговой, так вы сможете работать параллельно со мной и усвоите материал на все 100 процентов. Заканчивая курс, мы научимся экспортировать текстурные карты для использования их в других приложениях.
После прохождения этого курса, вы будете иметь хорошее представление о возможностях Substance Painter, а также познакомитесь с физически корректной визуализацией и материалами.
Файлы примеров: присутствуют
Формат видео: MP4
Видео: AVC (H264), 1280х720, 15 fps
Аудио: AAC, 44100 Hz, mono, 128 Кбит/с

Mediainfo

GeneralComplete name : 02. Создание и сохранение проекта Substance Painter.mp4Format : MPEG-4Format profile : Base MediaCodec ID : isomFile size : 22.3 MiBDuration : 10mn 59sOverall bit rate : 283 KbpsWriting application : Lavf55.19.104
VideoID : 1Format : AVCFormat/Info : Advanced Video CodecFormat profile : Main@L3.1Format settings, CABAC : YesFormat settings, ReFrames : 4 framesCodec ID : avc1Codec ID/Info : Advanced Video CodingDuration : 10mn 59sBit rate : 150 KbpsWidth : 1 280 pixelsHeight : 720 pixelsDisplay aspect ratio : 16:9Frame rate mode : VariableFrame rate : 15.000 fpsMinimum frame rate : 14.925 fpsMaximum frame rate : 15.152 fpsColor space : YUVChroma subsampling : 4:2:0Bit depth : 8 bitsScan type : ProgressiveBits/(Pixel*Frame) : 0.011Stream size : 11.8 MiB (53%)Writing library : x264 core 130 r2274 c832fe9Language : English
AudioID : 2Format : AACFormat/Info : Advanced Audio CodecFormat profile : LCCodec ID : 40Duration : 10mn 59sDuration_LastFrame : 25msBit rate mode : ConstantBit rate : 128 KbpsChannel(s) : 2 channelsChannel(s)_Original : 1 channelChannel positions : Front: CSampling rate : 44.1 KHzCompression mode : LossyStream size : 10.1 MiB (45%)Language : Russian

Скриншоты


Время раздачи: до первых 5 скачавших

_________________
Показать сообщения:    

Текущее время: Сегодня 06:51

Часовой пояс: GMT



Вы не можете начинать темы
Вы не можете отвечать на сообщения
Вы не можете редактировать свои сообщения
Вы не можете удалять свои сообщения
Вы не можете голосовать в опросах
Вы не можете прикреплять файлы к сообщениям
Вы не можете скачивать файлы