Важное объявление!
У Нас Все раздачи мультитрекерные, при нуле пиров в релизах, можете смело вставать на закачку!
Статистика раздачи
Размер:     |    Зарегистрирован:     |    Скачан:     |   
Нет
 
     
 
 
Автор Сообщение

HUNTER

Стаж:
5 лет
Сообщений:
67958

Репутация: 101

[+] [-]
Вне форума [Профиль] [ЛС]

[Digital-Tutors] Introduction to Substance Designer 4.6 [2015, RUS]
Год выпуска: 2015
Сайт производителя: DigitalTutors.com
Автор: Eddie Russell
Продолжительность: 4:01:02
Тип раздаваемого материала: Видеоурок
Язык: Русский (перевод HunterWolf)
Описание:
Введение в Substance Designer 4.6
В этом курсе мы рассмотрим замечательное приложение – Substance Designer, научимся пользоваться его уникальными возможностями и инструментами для текстурирования.
Для начала поймем как создавать и сохранять Substance Package. Затем, мы импортируем и свяжем необходимые для работы ресурсы – модели, изображения, текстуры. Далее, научимся пользоваться в Substance Designer модулем запекания – с помощью него выпечем ряд различных карт, которые помогут в дальнейшей разработке.
После добавления наших ресурсов, мы изучим связывание нод в простой граф и сфокусируемся на создании более комплексного материала с использованием instance-графов внутри нашего графа.
Когда материалы и графы уже будут созданы и настроены, мы научимся добавлять к ним динамические параметры, так называемые глобальные регуляторы, с помощью которых можно управлять свойствами материалов как в Substance Designer, так и в любом внешнем приложении (поддерживающем формат Substance).
В конце курса будет показано как опубликовать Substance-материал, чтобы им могли пользоваться другие люди и приложения.
После прохождения этого курса вы получите хорошее представление о программе Substance Designer, о процессе разработки с использованием Substance-материалов. Вы сможете создавать очень качественные текстуры и материалы для произвольных моделей.
Файлы примеров: присутствуют
Формат видео: MP4
Видео: AVC (H264), 1280х720, 15 fps
Аудио: AAC, 44100 Hz, mono, 128 Кбит/с

Mediainfo

GeneralComplete name : 02. Создаем и сохраняем Substance Package.mp4Format : MPEG-4Format profile : Base MediaCodec ID : isomFile size : 39.2 MiBDuration : 11mn 19sOverall bit rate : 485 KbpsWriting application : Lavf55.19.104
VideoID : 1Format : AVCFormat/Info : Advanced Video CodecFormat profile : High@L3.1Format settings, CABAC : YesFormat settings, ReFrames : 4 framesCodec ID : avc1Codec ID/Info : Advanced Video CodingDuration : 11mn 19sBit rate : 352 KbpsNominal bit rate : 904 KbpsWidth : 1 280 pixelsHeight : 720 pixelsDisplay aspect ratio : 16:9Frame rate mode : VariableFrame rate : 15.000 fpsMinimum frame rate : 14.925 fpsMaximum frame rate : 15.152 fpsColor space : YUVChroma subsampling : 4:2:0Bit depth : 8 bitsScan type : ProgressiveBits/(Pixel*Frame) : 0.025Stream size : 28.5 MiB (73%)Writing library : x264 core 118 r2085 8a62835Language : English
AudioID : 2Format : AACFormat/Info : Advanced Audio CodecFormat profile : LCCodec ID : 40Duration : 11mn 19sDuration_LastFrame : 27msBit rate mode : ConstantBit rate : 128 KbpsChannel(s) : 2 channelsChannel(s)_Original : 1 channelChannel positions : Front: CSampling rate : 44.1 KHzCompression mode : LossyStream size : 10.4 MiB (26%)Language : Russian

Скриншоты


Время раздачи: до первых 5 скачавших

_________________
Показать сообщения:    

Текущее время: Сегодня 02:34

Часовой пояс: GMT



Вы не можете начинать темы
Вы не можете отвечать на сообщения
Вы не можете редактировать свои сообщения
Вы не можете удалять свои сообщения
Вы не можете голосовать в опросах
Вы не можете прикреплять файлы к сообщениям
Вы не можете скачивать файлы