Важное объявление!
У Нас Все раздачи мультитрекерные, при нуле пиров в релизах, можете смело вставать на закачку!
 
Автор Сообщение

HUNTER

Стаж:
4 года 9 месяцев
Сообщений:
65008

Репутация: 101

[+] [-]
Вне форума [Профиль] [ЛС]

[Digital-Tutors] Introduction to MARI 2.0 [2013, RUS]
Год выпуска: 2013
Сайт производителя: DigitalTutors.com
Автор: Eddie Russell
Продолжительность: 4:35:20
Тип раздаваемого материала: Видеоурок
Язык: Русский (перевод Alex_Cg)
Описание:
Введение в MARI 2.0
MARI стала новым стандартом текстурирования и является революционным дополнением к производству графики во многих студиях.
С выпуском MARI 2.0 процесс текстурирования картин не только улучшился, но на самом деле был полностью переработан, чтобы использовать некоторые новые инструменты, методы и рабочие процессы.
В этом курсе по основам MARI мы пройдемся по каждой основной особенности на "марийском языке", чтобы научить вас быстро создавать текстуры в кратчайшие сроки.
Учебный курс описывает в деталях рабочий процесс живописи и научит вас использовать инструменты и методы, которые вам нужны, чтобы стать успешными специалистами по компьютерной графике.
Вы узнаете о новых функциях Мари 2.0 – включение слоев, корректирующие слои, процедурные слои и многое другое.

Дополнительная информация

Описание на Английском языке.
MARI has become the new standard in texture painting and a revolutionary addition to the production pipelines in many studios.
With the release of MARI 2.0, the texture painting experience has not just improved but in fact its been completely overhauled to incorporate some tools, techniques and workflows you’ll probably recognize.
In this MARI training, we will walk through each and every basic feature of MARI, and work to get you up to speed and painting in no time. This tutorial will cover in detail MARI’s projection based painting workflow and all of the tools and techniques that you’ll need to be successful.
Along the way, we’ll be learning about many of the exciting new features inside of MARI 2.0 including a personal favorite: the inclusion of layers and a true layer based workflow. We’ll learn about this and many other new features, including adjustment layers, procedural layers and much much more.
Whether you are a MARI veteran or a MARI newcomer, this tutorial has something for everyone. Strap in, warm up your painting and get ready to learn.
Файлы примеров: присутствуют
Формат видео: MP4
Видео: AVC (H264), 1280х720, 15 fps
Аудио: AAC, 44100 Hz, mono, 96 Кбит/с

Mediainfo

GeneralComplete name : 01. Introduction and project overview.mp4Format : MPEG-4Format profile : Base MediaCodec ID : isomFile size : 4.76 MiBDuration : 1mn 21sOverall bit rate : 490 KbpsWriting application : Lavf55.19.104
VideoID : 1Format : AVCFormat/Info : Advanced Video CodecFormat profile : Main@L3.1Format settings, CABAC : YesFormat settings, ReFrames : 4 framesCodec ID : avc1Codec ID/Info : Advanced Video CodingDuration : 1mn 21sBit rate : 390 KbpsWidth : 1 280 pixelsHeight : 720 pixelsDisplay aspect ratio : 16:9Frame rate mode : ConstantFrame rate : 15.000 fpsColor space : YUVChroma subsampling : 4:2:0Bit depth : 8 bitsScan type : ProgressiveBits/(Pixel*Frame) : 0.028Stream size : 3.79 MiB (80%)Writing library : x264 core 144 r2525 40bb568Language : English
AudioID : 2Format : AACFormat/Info : Advanced Audio CodecFormat profile : LCCodec ID : 40Duration : 1mn 21sDuration_LastFrame : 44msBit rate mode : ConstantBit rate : 96.0 KbpsChannel(s) : 2 channelsChannel(s)_Original : 1 channelChannel positions : Front: CSampling rate : 44.1 KHzCompression mode : LossyStream size : 956 KiB (20%)Language : Russian

Скриншоты


Время раздачи: до первых 5 скачавших

_________________
Показать сообщения:    

Текущее время: Сегодня 10:34

Часовой пояс: GMT



Вы не можете начинать темы
Вы не можете отвечать на сообщения
Вы не можете редактировать свои сообщения
Вы не можете удалять свои сообщения
Вы не можете голосовать в опросах
Вы не можете прикреплять файлы к сообщениям
Вы не можете скачивать файлы