Ивановский Торрент трекер
Яндекс.Погода
DL-List and Torrent activity
Size:  11.56 GB   |    Registered:  4 years 2 months   |    Completed:  0 times
DL-List: None

Seeder not seen: Never

 
     
 
 
 

[Quote]
HUNTER

Детские игры 2 / Child's Play 2- Год выпуска: 1990
Страна: США
Жанр: ужасы, триллер
Продолжительность: 01:23:50
Перевод: Студийный (одноголосый, закадровый) Tycoon
+ Профессиональный (многоголосый, закадровый) Пятница
+ Авторский (одноголосый закадровый) А.Гаврилов
+ Авторский (одноголосый закадровый) В.Горчаков
+ Авторский (одноголосый закадровый) Леша-Прапорщик
Оригинальная звуковая дорожка: English
Субтитры: Russian (x2), English-Режиссер: Джон Лафия / John Lafia
В ролях: Алекс Винсент, Дженни Агаттер, Геррит Грэм, Кристин Элиз, Брэд Дуриф, Грейс Забриски, Питер Хэскелл, Бет Грант, Грег Джерманн, Рэймонд Сингер
О фильме: Энди - мальчик, в которого Чаки пытался вселиться в первой серии - попадает к приемным родителям (родная мать мальчика была признана душевнобольной). Ему до сих пор снятся кошмары о Чаки.
Между тем, фирма-производитель рыжих игрушечных пупсов, дабы избежать дурной репутации (в силу событий, произошедших в фильме-оригинале), восстанавливает куклу Чаки из ее «останков», найденных на «месте происшествия». Так фирма пытается доказать, что реальной опасности кукла не имеет, но получилось наоборот...
Теперь Энди вновь предстоит столкнуться с маленьким, но очень опасным, пластмассовым монстром, который все еще намерен овладеть телом мальчика...-SbR!
Релиз:
Формат: MKV
Видео: 1920x1040 at 23.976 fps, x264, ~17000 kbps avg
Аудио #01: Russian: 48 kHz, AC3, 2/0 (L,R) ch, 192 kbps |Одноголосый закадровый, Tycoon|
Аудио #02: Russian: 48 kHz, AC3, 2/0 (L,R) ch, 192 kbps |Многоголосый закадровый, Пятница|
Аудио #03: Russian: 48 kHz, AC3, 2/0 (L,R) ch, 192 kbps |Одноголосый закадровый, А. Гаврилов|
Аудио #04: Russian: 48 kHz, AC3, 2/0 (L,R) ch, 192 kbps |Одноголосый закадровый, В. Горчаков|
Аудио #05: Russian: 48 kHz, AC3, 2/0 (L,R) ch, 192 kbps |Одноголосый закадровый, Леша-Прапорщик|
Аудио #06: Ukrainian: 48 kHz, AC3, 2/0 (L,R) ch, 192 kbps |Многоголосый закадровый, НЛО.TV|
Аудио #07: Ukrainian: 48 kHz, AC3, 2/0 (L,R) ch, 192 kbps |Многоголосый закадровый, Новый канал|
Аудио #08: English: 48 kHz/24-bit, FLAC 2.0, ~1397 kbps
Семпл-

Source vs Encode






-

mInfo

Формат : Matroska
Версия формата : Version 4 / Version 2
Размер файла : 11,6 Гбайт
Продолжительность : 1 ч. 23 м.
Режим общего битрейта : Переменный
Общий поток : 19,7 Мбит/сек
Название фильма : Child's Play 2 (1990) - Release for HDCLUB by SbR
Дата кодирования : UTC 2015-02-09 07:08:58
Программа кодирования : mkvmerge v7.5.0 ('Glass Culture') 64bit built on Jan 4 2015 16:48:44
Библиотека кодирования : libebml v1.3.1 + libmatroska v1.4.2
Attachements : cover.jpg / xlog.txt
Видео
Идентификатор : 1
Формат : AVC
Формат/Информация : Advanced Video Codec
Профиль формата : High@L4.1
Параметр CABAC формата : Да
Параметр ReFrames формата : 4 кадра
Идентификатор кодека : V_MPEG4/ISO/AVC
Продолжительность : 1 ч. 23 м.
Номинальный битрейт : 17,0 Мбит/сек
Ширина : 1920 пикселей
Высота : 1040 пикселей
Соотношение сторон : 1,85:1
Режим частоты кадров : Постоянный
Частота кадров : 23,976 кадра/сек
Цветовое пространство : YUV
Субдискретизация насыщенности : 4:2:0
Битовая глубина : 8 бит
Тип развёртки : Прогрессивная
Бит/(Пиксели*Кадры) : 0.355
Заголовок : Release for HDCLUB
Библиотека кодирования : x264 core 144 r2525kMod 40bb568
Настройки программы : cabac=1 / ref=4 / deblock=1:-3:-3 / analyse=0x3:0x133 / me=umh / subme=11 / psy=1 / fade_compensate=0.00 / psy_rd=1.00:0.00 / mixed_ref=1 / me_range=32 / chroma_me=1 / trellis=2 / 8x8dct=1 / cqm=0 / deadzone=21,11 / fast_pskip=0 / chroma_qp_offset=-2 / threads=12 / lookahead_threads=2 / sliced_threads=0 / nr=0 / decimate=1 / interlaced=0 / bluray_compat=0 / constrained_intra=0 / fgo=0 / bframes=8 / b_pyramid=2 / b_adapt=2 / b_bias=0 / direct=3 / weightb=1 / open_gop=0 / weightp=2 / keyint=250 / keyint_min=23 / scenecut=40 / intra_refresh=0 / rc_lookahead=60 / rc=2pass / mbtree=0 / bitrate=17000 / ratetol=1.0 / qcomp=0.70 / qpmin=0 / qpmax=69 / qpstep=4 / cplxblur=20.0 / qblur=0.5 / vbv_maxrate=62500 / vbv_bufsize=78125 / nal_hrd=none / filler=0 / ip_ratio=1.40 / pb_ratio=1.30 / aq=1:0.70
Язык : English
Default : Да
Forced : Нет
Основные цвета : BT.709
Характеристики трансфера : BT.709
Коэффициенты матрицы : BT.709
colour_range : Limited
Аудио #1
Идентификатор : 2
Формат : AC-3
Формат/Информация : Audio Coding 3
Расширение режима : CM (complete main)
Параметр Endianness формата : Big
Идентификатор кодека : A_AC3
Продолжительность : 1 ч. 23 м.
Вид битрейта : Постоянный
Битрейт : 192 Кбит/сек
Каналы : 2 канала
Расположение каналов : Front: L R
Частота : 48,0 КГц
Битовая глубина : 16 бит
Метод сжатия : С потерями
Размер потока : 115 Мбайт (1%)
Заголовок : Tycoon
Язык : Russian
Default : Да
Forced : Нет
Аудио #2
Идентификатор : 3
Формат : AC-3
Формат/Информация : Audio Coding 3
Расширение режима : CM (complete main)
Параметр Endianness формата : Big
Идентификатор кодека : A_AC3
Продолжительность : 1 ч. 23 м.
Вид битрейта : Постоянный
Битрейт : 192 Кбит/сек
Каналы : 2 канала
Расположение каналов : Front: L R
Частота : 48,0 КГц
Битовая глубина : 16 бит
Метод сжатия : С потерями
Размер потока : 115 Мбайт (1%)
Заголовок : MVO, Пятница
Язык : Russian
Default : Нет
Forced : Нет
Аудио #3
Идентификатор : 4
Формат : AC-3
Формат/Информация : Audio Coding 3
Расширение режима : CM (complete main)
Параметр Endianness формата : Big
Идентификатор кодека : A_AC3
Продолжительность : 1 ч. 23 м.
Вид битрейта : Постоянный
Битрейт : 192 Кбит/сек
Каналы : 2 канала
Расположение каналов : Front: L R
Частота : 48,0 КГц
Битовая глубина : 16 бит
Метод сжатия : С потерями
Размер потока : 115 Мбайт (1%)
Заголовок : Гаврилов
Язык : Russian
Default : Нет
Forced : Нет
Аудио #4
Идентификатор : 5
Формат : AC-3
Формат/Информация : Audio Coding 3
Расширение режима : CM (complete main)
Параметр Endianness формата : Big
Идентификатор кодека : A_AC3
Продолжительность : 1 ч. 23 м.
Вид битрейта : Постоянный
Битрейт : 192 Кбит/сек
Каналы : 2 канала
Расположение каналов : Front: L R
Частота : 48,0 КГц
Битовая глубина : 16 бит
Метод сжатия : С потерями
Размер потока : 115 Мбайт (1%)
Заголовок : Горчаков
Язык : Russian
Default : Нет
Forced : Нет
Аудио #5
Идентификатор : 6
Формат : AC-3
Формат/Информация : Audio Coding 3
Расширение режима : CM (complete main)
Параметр Endianness формата : Big
Идентификатор кодека : A_AC3
Продолжительность : 1 ч. 23 м.
Вид битрейта : Постоянный
Битрейт : 192 Кбит/сек
Каналы : 2 канала
Расположение каналов : Front: L R
Частота : 48,0 КГц
Битовая глубина : 16 бит
Метод сжатия : С потерями
Размер потока : 115 Мбайт (1%)
Заголовок : Леша-Прапорщик
Язык : Russian
Default : Нет
Forced : Нет
Аудио #6
Идентификатор : 7
Формат : AC-3
Формат/Информация : Audio Coding 3
Расширение режима : CM (complete main)
Параметр Endianness формата : Big
Идентификатор кодека : A_AC3
Продолжительность : 1 ч. 23 м.
Вид битрейта : Постоянный
Битрейт : 192 Кбит/сек
Каналы : 2 канала
Расположение каналов : Front: L R
Частота : 48,0 КГц
Битовая глубина : 16 бит
Метод сжатия : С потерями
Размер потока : 115 Мбайт (1%)
Заголовок : MVO, НЛО.TV
Язык : Ukrainian
Default : Нет
Forced : Нет
Аудио #7
Идентификатор : 8
Формат : AC-3
Формат/Информация : Audio Coding 3
Расширение режима : CM (complete main)
Параметр Endianness формата : Big
Идентификатор кодека : A_AC3
Продолжительность : 1 ч. 23 м.
Вид битрейта : Постоянный
Битрейт : 192 Кбит/сек
Каналы : 2 канала
Расположение каналов : Front: L R
Частота : 48,0 КГц
Битовая глубина : 16 бит
Метод сжатия : С потерями
Размер потока : 115 Мбайт (1%)
Заголовок : MVO, Новый канал
Язык : Ukrainian
Default : Нет
Forced : Нет
Аудио #8
Идентификатор : 9
Формат : FLAC
Формат/Информация : Free Lossless Audio Codec
Идентификатор кодека : A_FLAC
Продолжительность : 1 ч. 23 м.
Вид битрейта : Переменный
Каналы : 2 канала
Частота : 48,0 КГц
Битовая глубина : 24 бит
Библиотека кодирования : libFLAC 1.2.1 (UTC 2007-09-17)
Язык : English
Default : Нет
Forced : Нет
Текст #1
Идентификатор : 10
Формат : UTF-8
Идентификатор кодека : S_TEXT/UTF8
Идентификатор кодека/Информация : UTF-8 Plain Text
Язык : Russian
Default : Нет
Forced : Нет
Текст #2
Идентификатор : 11
Формат : UTF-8
Идентификатор кодека : S_TEXT/UTF8
Идентификатор кодека/Информация : UTF-8 Plain Text
Язык : Russian
Default : Нет
Forced : Нет
Текст #3
Идентификатор : 12
Формат : UTF-8
Идентификатор кодека : S_TEXT/UTF8
Идентификатор кодека/Информация : UTF-8 Plain Text
Язык : English
Default : Нет
Forced : Нет
Меню
00:00:00.000 : en:Main Titles
00:03:49.770 : en:Good News?
00:04:58.964 : en:A Rebuilt Chucky
00:06:20.088 : en:Andy's Therapy
00:09:36.158 : en:The Foster Family
00:14:59.398 : en:Rough Handling
00:20:09.625 : en:A Stormy Night
00:26:00.808 : en:"Tommy" And Andy
00:29:46.326 : en:Friends To The End
00:34:05.000 : en:Miss Kettlewell
00:42:35.594 : en:In The Basement
00:48:27.777 : en:Andy's Rejection
00:50:35.782 : en:Under The Swing
00:59:53.255 : en:Fire Drill
01:04:52.220 : en:At The Factory
01:15:04.917 : en:Duck!
01:16:58.113 : en:Kyle!
01:20:19.939 : en:End Titles
-
[iv-torrents.ru].t42248.torrent
Torrent: Registered [ 2015-03-21 13:14 ] · 0FCD82DA7300AD93105FB68E7F7CBCE70475421A

Download .torrent

Download

29 KB

Status: checked
Completed: 0 times
Size: 11.56 GB
terms.php
Похожие темы


Display posts:    

Current time is: 23-May 23:33

All times are UTC ± 0


You cannot post new topics in this forum
You cannot reply to topics in this forum
You cannot edit your posts in this forum
You cannot delete your posts in this forum
You cannot vote in polls in this forum
You cannot attach files in this forum
You can download files in this forum

!ATTENTION!
The site does not give electronic versions of products, and is engaged only in a collecting and cataloguing of the references sent and published at a forum by our readers. If you are the legal owner of any submitted material and do not wish that the reference to it was in our catalogue, contact us and we shall immediately remove her. Files for an exchange on tracker are given by users of a site, and the administration does not bear the responsibility for their maintenance. The request to not fill in the files protected by copyrights, and also files of the illegal maintenance!