Важное объявление!
У Нас Все раздачи мультитрекерные, при нуле пиров в релизах, можете смело вставать на закачку!
 
Автор Сообщение

HUNTER

Стаж:
4 года 10 месяцев
Сообщений:
65506

Репутация: 101

[+] [-]
Вне форума [Профиль] [ЛС]

Derric Rossy vs. Akhror Muralimov & Undercard / Деррик Росси - Ахрор Муралимов + Андеркарт-
Дата/Год выпуска: 14.02.2015
Вид спорта: Бокс
Язык комментариев: Английский
Канал: CBS Sports HD
Место проведения: "Resorts World Casino", Куинс, Нью-Йорк, США.-Описание: Перспективный и не имеющий поражений узбекский боксер супертяжелого веса (свыше 90,7 кг) Ахрор Муралимов (16-0, 13 КО) выйдет на ринг против 34-летнего американеца Деррик Росси (29-9, 14 КО). На кону будет находиться вакантный пояс IBF North American в супертяжелом весе.-Автор рипа/записи: nabucghost-Качество: HDTV 720p
Формат: MKV
Видео: 1280x720 (16:9), 59,940 fps, H264, ~8000 kbps avg, ~0.144 bit/pixel
Аудио: 48 kHz, AC3 Dolby Digital, 2/0 (L,R) ch, ~256.00 kbps avg-

Список боев

1. Mike Lee [13-0] vs. Gary Tapusoa [6-3-1] - 6 Rounds in the Cruiserweight Division
2. Armin Mrkanovic [6-2] vs. Dave Valykeo [4-3] - 6 Rounds in the Cruiserweight Division
3. Derric Rossy [29-9] vs. Akhror Muralimov [16-0] - 10 Rounds in the Heavyweight Division

Продолжительность

1. Mike Lee vs. Gary Tapusoa (0:17:43)
2. Armin Mrkanovic vs. Dave Valykeo (0:27:56)
3. Derric Rossy vs. Akhror Muralimov (0:45:54)

Скриншоты

MediaInfo

1.-.Mike.Lee.vs.Gary.Tapusoa.60fps.HDTV.720p.x264-ENG-lrn.mkv
GeneralUnique ID : 222608025786825517230597097228802911278 (0xA778BF0BB4DE8304944CEF138122EC2E)Complete name : E:\uTorrent.Temp\Temp\Derric Rossy vs. Akhror Muralimov & Undercard [60fps, HDTV 720p, ENG]\1.-.Mike.Lee.vs.Gary.Tapusoa.60fps.HDTV.720p.x264-ENG-lrn.mkvFormat : MatroskaFormat version : Version 4 / Version 2File size : 1.04 GiBDuration : 17mn 43sOverall bit rate : 8 388 KbpsMovie name : 'Derric Rossy vs. Akhror Muralimov & Undercard [60fps, HDTV 720p, ENG]' by lrn © 2015Encoded date : UTC 2010-02-22 21:41:31Writing application : mkvmerge v5.9.0 ('On The Loose') built on Dec 9 2012 15:37:01Writing library : libebml v1.3.0 + libmatroska v1.4.0
VideoID : 1Format : AVCFormat/Info : Advanced Video CodecFormat profile : High@L4.0Format settings, CABAC : YesFormat settings, ReFrames : 3 framesCodec ID : V_MPEG4/ISO/AVCDuration : 17mn 43sBit rate : 7 965 KbpsWidth : 1 280 pixelsHeight : 720 pixelsDisplay aspect ratio : 16:9Frame rate mode : ConstantFrame rate : 60.000 fpsOriginal frame rate : 59.940 fpsStandard : ComponentColor space : YUVChroma subsampling : 4:2:0Bit depth : 8 bitsScan type : ProgressiveBits/(Pixel*Frame) : 0.144Stream size : 1 010 MiB (95%)Default : YesForced : NoColor primaries : BT.709Transfer characteristics : BT.709Matrix coefficients : BT.709Color range : Limited
AudioID : 2Format : AC-3Format/Info : Audio Coding 3Mode extension : CM (complete main)Format settings, Endianness : BigCodec ID : A_AC3Duration : 17mn 43sBit rate mode : ConstantBit rate : 256 KbpsChannel(s) : 2 channelsChannel positions : Front: L RSampling rate : 48.0 KHzBit depth : 16 bitsCompression mode : LossyDelay relative to video : 13msStream size : 32.5 MiB (3%)Language : EnglishDefault : YesForced : No

2.-.Armin.Mrkanovic.vs.Dave.Valykeo.60fps.HDTV.720p.x264-ENG-lrn.mkv

GeneralUnique ID : 181962055329165431691769177894811254260 (0x88E49DFAECEAF9C18C32F4EDA49ABDF4)Complete name : E:\uTorrent.Temp\Temp\Derric Rossy vs. Akhror Muralimov & Undercard [60fps, HDTV 720p, ENG]\2.-.Armin.Mrkanovic.vs.Dave.Valykeo.60fps.HDTV.720p.x264-ENG-lrn.mkvFormat : MatroskaFormat version : Version 4 / Version 2File size : 1.63 GiBDuration : 27mn 56sOverall bit rate : 8 339 KbpsMovie name : 'Derric Rossy vs. Akhror Muralimov & Undercard [60fps, HDTV 720p, ENG]' by lrn © 2015Encoded date : UTC 2010-02-22 21:41:31Writing application : mkvmerge v5.9.0 ('On The Loose') built on Dec 9 2012 15:37:01Writing library : libebml v1.3.0 + libmatroska v1.4.0
VideoID : 1Format : AVCFormat/Info : Advanced Video CodecFormat profile : High@L4.0Format settings, CABAC : YesFormat settings, ReFrames : 3 framesFormat settings, GOP : M=3, N=13Codec ID : V_MPEG4/ISO/AVCDuration : 27mn 56sBit rate : 7 917 KbpsWidth : 1 280 pixelsHeight : 720 pixelsDisplay aspect ratio : 16:9Frame rate mode : ConstantFrame rate : 59.880 fpsOriginal frame rate : 59.940 fpsStandard : ComponentColor space : YUVChroma subsampling : 4:2:0Bit depth : 8 bitsScan type : ProgressiveBits/(Pixel*Frame) : 0.143Stream size : 1.55 GiB (95%)Default : YesForced : NoColor primaries : BT.709Transfer characteristics : BT.709Matrix coefficients : BT.709Color range : Limited
AudioID : 2Format : AC-3Format/Info : Audio Coding 3Mode extension : CM (complete main)Format settings, Endianness : BigCodec ID : A_AC3Duration : 27mn 56sBit rate mode : ConstantBit rate : 256 KbpsChannel(s) : 2 channelsChannel positions : Front: L RSampling rate : 48.0 KHzBit depth : 16 bitsCompression mode : LossyDelay relative to video : 30msStream size : 51.2 MiB (3%)Language : EnglishDefault : YesForced : No

3.-.Derric.Rossy.vs.Akhror.Muralimov.60fps.HDTV.720p.x264-ENG-lrn.mkv

GeneralUnique ID : 212588440581539661580225507671215671198 (0x9FEF0B5AD3AAE777864F0A59D19F879E)Complete name : E:\uTorrent.Temp\Temp\Derric Rossy vs. Akhror Muralimov & Undercard [60fps, HDTV 720p, ENG]\3.-.Derric.Rossy.vs.Akhror.Muralimov.60fps.HDTV.720p.x264-ENG-lrn.mkvFormat : MatroskaFormat version : Version 4 / Version 2File size : 2.67 GiBDuration : 45mn 54sOverall bit rate : 8 339 KbpsMovie name : 'Derric Rossy vs. Akhror Muralimov & Undercard [60fps, HDTV 720p, ENG]' by lrn © 2015Encoded date : UTC 2010-02-22 21:41:31Writing application : mkvmerge v5.9.0 ('On The Loose') built on Dec 9 2012 15:37:01Writing library : libebml v1.3.0 + libmatroska v1.4.0
VideoID : 1Format : AVCFormat/Info : Advanced Video CodecFormat profile : High@L4.0Format settings, CABAC : YesFormat settings, ReFrames : 3 framesCodec ID : V_MPEG4/ISO/AVCBit rate : 7 917 KbpsWidth : 1 280 pixelsHeight : 720 pixelsDisplay aspect ratio : 16:9Frame rate mode : VariableOriginal frame rate : 59.940 fpsStandard : ComponentColor space : YUVChroma subsampling : 4:2:0Bit depth : 8 bitsScan type : ProgressiveDefault : YesForced : NoColor primaries : BT.709Transfer characteristics : BT.709Matrix coefficients : BT.709Color range : Limited
AudioID : 2Format : AC-3Format/Info : Audio Coding 3Mode extension : CM (complete main)Format settings, Endianness : BigCodec ID : A_AC3Duration : 45mn 54sBit rate mode : ConstantBit rate : 256 KbpsChannel(s) : 2 channelsChannel positions : Front: L RSampling rate : 48.0 KHzBit depth : 16 bitsCompression mode : LossyDelay relative to video : 17msStream size : 84.1 MiB (3%)Language : EnglishDefault : YesForced : No

_________________
Показать сообщения:    

Текущее время: Сегодня 13:10

Часовой пояс: GMT



Вы не можете начинать темы
Вы не можете отвечать на сообщения
Вы не можете редактировать свои сообщения
Вы не можете удалять свои сообщения
Вы не можете голосовать в опросах
Вы не можете прикреплять файлы к сообщениям
Вы не можете скачивать файлы