Важное объявление!
У Нас Все раздачи мультитрекерные, при нуле пиров в релизах, можете смело вставать на закачку!
 
Автор Сообщение

HUNTER

Стаж:
4 года 4 месяца
Сообщений:
56765

Репутация: 101

[+] [-]
Вне форума [Профиль] [ЛС]

David Sanchez vs. Juan Alberto Rosas & Undercard / Давид Санчес - Хуан Альберто Росас + Андеркарт-
Дата/Год выпуска: 14.02.2015
Вид спорта: Бокс
Язык комментариев: Испанский
Канал: BeIN Sports HD
Место проведения: "Palenque de la Expogan", Эрмосильо, Сонора, Мексика.-Описание: Обладатель титула временного чемпиона WBA в весе «супермухи» Давид Санчес (26-2-2, 20 KO) проведёт защиту своего титула против Альберто Росаса (40-8, 28 KO).-Автор рипа/записи: nabucghost-Качество: HDTV 720p
Формат: MKV
Видео: 1280x720 (16:9), 59,940 fps, H264, ~8000 kbps avg, ~0.144 bit/pixel
Аудио: 48 kHz, AC3, 2/0 (L,R) ch, ~256.00 kbps avg-

Список боев

1. Adrian Young [20-1-2] vs. Josue Veraza [14-5-1] - 10 Rounds in the Super Featherweight Division
2. Victor Emanuel Olivo [6-0] vs. Angel Montes [0-9] - 4 Rounds in the Super Flyweight Division
3. David Sanchez [26-2-2] vs. Juan Alberto Rosas [40-8] - 12 Rounds for Sanchez's Interim WBA Super Flyweight Title

Продолжительность

1. Adrian Young vs. Josue Veraza (0:10:00)
2. Victor Emanuel Olivo vs. Angel Montes (0:26:07)
3. David Sanchez vs. Juan Alberto Rosas (0:45:47)

Скриншоты

MediaInfo

1.-.Adrian.Young.vs.Josue.Veraza.60fps.HDTV.720p.x264-SPA-lrn.mkv
GeneralUnique ID : 234312714191977807757466113591121593610 (0xB046FCBD280AB43B8C68B0513DDCC50A)Complete name : E:\uTorrent.Temp\Temp\David Sanchez vs. Juan Alberto Rosas & Undercard [60fps, HDTV 720p, SPA]\1.-.Adrian.Young.vs.Josue.Veraza.60fps.HDTV.720p.x264-SPA-lrn.mkvFormat : MatroskaFormat version : Version 4 / Version 2File size : 588 MiBDuration : 10mn 0sOverall bit rate : 8 215 KbpsMovie name : 'David Sanchez vs. Juan Alberto Rosas & Undercard [60fps, HDTV 720p, SPA]' by lrn © 2015Encoded date : UTC 2010-02-22 21:41:31Writing application : mkvmerge v5.9.0 ('On The Loose') built on Dec 9 2012 15:37:01Writing library : libebml v1.3.0 + libmatroska v1.4.0
VideoID : 1Format : AVCFormat/Info : Advanced Video CodecFormat profile : High@L4.0Format settings, CABAC : YesFormat settings, ReFrames : 3 framesCodec ID : V_MPEG4/ISO/AVCDuration : 10mn 0sBit rate : 7 796 KbpsWidth : 1 280 pixelsHeight : 720 pixelsDisplay aspect ratio : 16:9Frame rate mode : ConstantFrame rate : 60.000 fpsOriginal frame rate : 59.940 fpsStandard : ComponentColor space : YUVChroma subsampling : 4:2:0Bit depth : 8 bitsScan type : ProgressiveBits/(Pixel*Frame) : 0.141Stream size : 558 MiB (95%)Default : YesForced : NoColor primaries : BT.709Transfer characteristics : BT.709Matrix coefficients : BT.709Color range : Limited
AudioID : 2Format : AC-3Format/Info : Audio Coding 3Mode extension : CM (complete main)Format settings, Endianness : BigCodec ID : A_AC3Duration : 10mn 0sBit rate mode : ConstantBit rate : 256 KbpsChannel(s) : 2 channelsChannel positions : Front: L RSampling rate : 48.0 KHzBit depth : 16 bitsCompression mode : LossyDelay relative to video : 10msStream size : 18.3 MiB (3%)Language : SpanishDefault : YesForced : No

2.-.Victor.Emanuel.Olivo.vs.Angel.Montes.60fps.HDTV.720p.x264-SPA-lrn.mkv

GeneralUnique ID : 191278823417241774176254919840474294270 (0x8FE6F61CA608770F9767DCCAEF2B67FE)Complete name : E:\uTorrent.Temp\Temp\David Sanchez vs. Juan Alberto Rosas & Undercard [60fps, HDTV 720p, SPA]\2.-.Victor.Emanuel.Olivo.vs.Angel.Montes.60fps.HDTV.720p.x264-SPA-lrn.mkvFormat : MatroskaFormat version : Version 4 / Version 2File size : 1.52 GiBDuration : 26mn 7sOverall bit rate : 8 311 KbpsMovie name : 'David Sanchez vs. Juan Alberto Rosas & Undercard [60fps, HDTV 720p, SPA]' by lrn © 2015Encoded date : UTC 2010-02-22 21:41:31Writing application : mkvmerge v5.9.0 ('On The Loose') built on Dec 9 2012 15:37:01Writing library : libebml v1.3.0 + libmatroska v1.4.0
VideoID : 1Format : AVCFormat/Info : Advanced Video CodecFormat profile : High@L4.0Format settings, CABAC : YesFormat settings, ReFrames : 3 framesCodec ID : V_MPEG4/ISO/AVCDuration : 26mn 7sBit rate : 7 889 KbpsWidth : 1 280 pixelsHeight : 720 pixelsDisplay aspect ratio : 16:9Frame rate mode : ConstantFrame rate : 60.000 fpsOriginal frame rate : 59.940 fpsStandard : ComponentColor space : YUVChroma subsampling : 4:2:0Bit depth : 8 bitsScan type : ProgressiveBits/(Pixel*Frame) : 0.143Stream size : 1.44 GiB (95%)Default : YesForced : NoColor primaries : BT.709Transfer characteristics : BT.709Matrix coefficients : BT.709Color range : Limited
AudioID : 2Format : AC-3Format/Info : Audio Coding 3Mode extension : CM (complete main)Format settings, Endianness : BigCodec ID : A_AC3Duration : 26mn 7sBit rate mode : ConstantBit rate : 256 KbpsChannel(s) : 2 channelsChannel positions : Front: L RSampling rate : 48.0 KHzBit depth : 16 bitsCompression mode : LossyDelay relative to video : 11msStream size : 47.8 MiB (3%)Language : SpanishDefault : YesForced : No

3.-.David.Sanchez.vs.Juan.Alberto.Rosas.60fps.HDTV.720p.x264-SPA-lrn.mkv

GeneralUnique ID : 225650209350437867411215100553136682287 (0xA9C2A646957E20D4A1BA5DFA371FB52F)Complete name : E:\uTorrent.Temp\Temp\David Sanchez vs. Juan Alberto Rosas & Undercard [60fps, HDTV 720p, SPA]\3.-.David.Sanchez.vs.Juan.Alberto.Rosas.60fps.HDTV.720p.x264-SPA-lrn.mkvFormat : MatroskaFormat version : Version 4 / Version 2File size : 2.65 GiBDuration : 45mn 47sOverall bit rate : 8 290 KbpsMovie name : 'David Sanchez vs. Juan Alberto Rosas & Undercard [60fps, HDTV 720p, SPA]' by lrn © 2015Encoded date : UTC 2010-02-22 21:41:31Writing application : mkvmerge v5.9.0 ('On The Loose') built on Dec 9 2012 15:37:01Writing library : libebml v1.3.0 + libmatroska v1.4.0
VideoID : 1Format : AVCFormat/Info : Advanced Video CodecFormat profile : High@L4.0Format settings, CABAC : YesFormat settings, ReFrames : 3 framesCodec ID : V_MPEG4/ISO/AVCDuration : 45mn 47sBit rate : 7 869 KbpsWidth : 1 280 pixelsHeight : 720 pixelsDisplay aspect ratio : 16:9Frame rate mode : ConstantFrame rate : 60.000 fpsOriginal frame rate : 59.940 fpsStandard : ComponentColor space : YUVChroma subsampling : 4:2:0Bit depth : 8 bitsScan type : ProgressiveBits/(Pixel*Frame) : 0.142Stream size : 2.52 GiB (95%)Default : YesForced : NoColor primaries : BT.709Transfer characteristics : BT.709Matrix coefficients : BT.709Color range : Limited
AudioID : 2Format : AC-3Format/Info : Audio Coding 3Mode extension : CM (complete main)Format settings, Endianness : BigCodec ID : A_AC3Duration : 45mn 47sBit rate mode : ConstantBit rate : 256 KbpsChannel(s) : 2 channelsChannel positions : Front: L RSampling rate : 48.0 KHzBit depth : 16 bitsCompression mode : LossyDelay relative to video : 26msStream size : 83.8 MiB (3%)Language : SpanishDefault : YesForced : No

_________________
Показать сообщения:    

Текущее время: Сегодня 21:31

Часовой пояс: GMT



Вы не можете начинать темы
Вы не можете отвечать на сообщения
Вы не можете редактировать свои сообщения
Вы не можете удалять свои сообщения
Вы не можете голосовать в опросах
Вы не можете прикреплять файлы к сообщениям
Вы не можете скачивать файлы