Ивановский Торрент трекер
Яндекс.Погода
DL-List and Torrent activity
None
 
     
 
 

[Quote]
HUNTER

Цветы на чердаке / Flowers in the Attic
Страна: США
Студия: Fries Entertainment
Жанр: драма, триллер
Год выпуска: 1987
Продолжительность: 01:31:37
Перевод: Профессиональный (многоголосый закадровый) Варус видео
Перевод 2: Профессиональный (многоголосый закадровый)
Cубтитры: нет
Оригинальная аудиодорожка: английский
Режиссер: Джеффри Блум / Jeffrey Bloom
В ролях: Луиза Флетчер, Виктория Теннант, Кристи Свенсон
Описание: Двое подростков Крис и Катя, а также двое малышей-близняшек Кэрри и Кори вынуждены жить со своей матерью у бабушки и дедушки после того, как исчез их отец. Но бабушка относится к детям, мягко говоря, неважно. Она рассказывает им об их семье всякие гадости, помня, как семнадцать лет назад дочь сбежала из дома без ее благословения. Очень религиозная женщина, бабуля считает детей ни на что не годными и держит их спрятанными от больного деда, который даже не знает, что они родились. Хотя дом очень большой, бабушка запрещает детям покидать их комнаты, а играть разрешает только на чердаке, на который имеется прямой выход из их комнат. Хотя их матери разрешается навещать детей, у них все равно складывается впечатление, что они пленники в этом доме, откуда им никогда не убежать. В конце концов, бабуля получает то, что она заслуживает, а именно-смерть…
Именно после этого фильма у меня полностью оформилось предвзятое отношение к Луизе Флетчер, первым камушком к которому была ее похожая роль в картине «Полет над гнездом кукушки» (1976), особенно заключительный эпизод с самоубийством Брэда Дурифа. Главная тема этого напряженного психологического триллера-кровосмешение. Академия фантастических фильмов, фэнтази и фильмов ужасов США номинировала картину на свой приз «Сатурн» за лучшую актрису второго плана (Флетчер). В прокате США картина собрала 15, 2 миллиона долларов.
Доп. информация: За основу был взят этот двд http://rutracker.org/forum/viewtopic.php?t=1084055 добавлена русская дорожка Варус видео.
За синхронизацию русской дорожки огромное спасибо Нордер
При пересборе двд были использованы программы:
PgcDemux - разделение компонентов диска на файлы
Muxman - мультиплексирование и авторинг DVD
VobBlanker - реавторинг DVD

Скрин завершения проекта

Бонусы: Каталог, Смотрите на DVD.
Сэмпл: http://sendfile.su/1097902
Тип релиза: DVD9 (Custom)
Контейнер: DVD-Video
Видео: PAL 16:9 (720x576) VBR Auto Pan&Scan
Аудио: Russian (Dolby AC3, 192 Кбит/сек, 2 ch)
Аудио 2: Russian (Dolby AC3, 192 Кбит/сек, 2 ch)
Аудио 3: English (Dolby AC3, 448 Кбит/сек, 6 ch)

DVDInfo

Size: 5.88 Gb ( 6 170 516 KBytes ) - DVD-9
Enabled regions: 1, 2, 3, 4, 5, 6, 7, 8
VTS_01 :
Play Length: 00:00:05
Video: PAL 4:3 (720x576) VBR
VTS_02 :
Play Length: 00:00:11
Video: PAL 4:3 (720x576) VBR
Audio:
Not specified (Dolby AC3, 6 ch)
Not specified (Dolby AC3, 6 ch)
Not specified (Dolby AC3, 6 ch)
Subtitles:
Not specified
VTS_03 :
Play Length: 01:31:37
Video: PAL 16:9 (720x576) VBR, Auto Pan&Scan
Audio:
Russian (Dolby AC3, 2 ch)
Russian (Dolby AC3, 2 ch)
English (Dolby AC3, 6 ch)
VTS_04 :
Play Length: 00:02:06
Video: PAL 4:3 (720x576) VBR
Audio:
Not specified (Dolby AC3, 2 ch)
Subtitles:
Not specified
VTS_05 :
Play Length: 00:02:07
Video: PAL 4:3 (720x576) VBR
Audio:
Not specified (Dolby AC3, 2 ch)
Subtitles:
Not specified
VTS_06 :
Play Length: 00:02:12
Video: PAL 16:9 (720x576) VBR, Auto Pan&Scan
Audio:
Not specified (Dolby AC3, 2 ch)
Subtitles:
Not specified
Menu Video:
PAL 16:9 (720x576) VBR
Auto Pan&Scan, Auto Letterboxed
Menu English Language Unit :
Root Menu
Audio Menu
Chapter (PTT) Menu

MediaInfo

Общее
Полное имя : M:\Flowers in the Attic_1987\VIDEO_TS\VTS_03_1.VOB
Формат : MPEG-PS
Размер файла : 1024 Мбайт
Продолжительность : 16 м.
Режим общего битрейта : Переменный
Общий поток : 8532 Кбит/сек
Видео
Идентификатор : 224 (0xE0)
Формат : MPEG Video
Версия формата : Version 2
Профиль формата : Main@Main
Параметр BVOP формата : Да
Параметр матрицы формата : Выборочная
Продолжительность : 16 м.
Вид битрейта : Переменный
Максимальный битрейт : 7700 Кбит/сек
Ширина : 720 пикселей
Высота : 576 пикселей
Соотношение сторон : 2,40:1
Частота кадров : 25,000 кадров/сек
Стандарт вещания : PAL
Цветовое пространство : YUV
Субдискретизация насыщенности : 4:2:0
Битовая глубина : 8 бит
Тип развёртки : Чересстрочная
Порядок развёртки : Верхнее поле первое
Метод сжатия : С потерями
Аудио #1
Идентификатор : 189 (0xBD)-128 (0x80)
Формат : AC-3
Формат/Информация : Audio Coding 3
Расширение режима : CM (complete main)
Параметр Endianness формата : Big
Режим смешивания : DVD-Video
Продолжительность : 16 м.
Вид битрейта : Постоянный
Битрейт : 192 Кбит/сек
Каналы : 2 канала
Расположение каналов : Front: L R
Частота : 48,0 КГц
Битовая глубина : 16 бит
Метод сжатия : С потерями
Размер потока : 23,0 Мбайт (2%)
Аудио #2
Идентификатор : 189 (0xBD)-129 (0x81)
Формат : AC-3
Формат/Информация : Audio Coding 3
Расширение режима : CM (complete main)
Параметр Endianness формата : Big
Режим смешивания : DVD-Video
Продолжительность : 16 м.
Вид битрейта : Постоянный
Битрейт : 192 Кбит/сек
Каналы : 2 канала
Расположение каналов : Front: L R
Частота : 48,0 КГц
Битовая глубина : 16 бит
Метод сжатия : С потерями
Размер потока : 23,0 Мбайт (2%)
Аудио #3
Идентификатор : 189 (0xBD)-130 (0x82)
Формат : AC-3
Формат/Информация : Audio Coding 3
Расширение режима : CM (complete main)
Параметр Endianness формата : Big
Режим смешивания : DVD-Video
Продолжительность : 16 м.
Вид битрейта : Постоянный
Битрейт : 448 Кбит/сек
Каналы : 6 каналов
Расположение каналов : Front: L C R, Side: L R, LFE
Частота : 48,0 КГц
Битовая глубина : 16 бит
Метод сжатия : С потерями
Размер потока : 53,8 Мбайт (5%)
Аудио #4
Идентификатор : 214 (0xD6)
Формат : MPEG Audio
Метод сжатия : С потерями
Меню

Постеры, обложка и блин

Скриншоты меню



Display posts:    

Current time is: 14-Nov 11:23

All times are UTC ± 0


You cannot post new topics in this forum
You cannot reply to topics in this forum
You cannot edit your posts in this forum
You cannot delete your posts in this forum
You cannot vote in polls in this forum
You cannot attach files in this forum
You cannot download files in this forum

!ATTENTION!
The site does not give electronic versions of products, and is engaged only in a collecting and cataloguing of the references sent and published at a forum by our readers. If you are the legal owner of any submitted material and do not wish that the reference to it was in our catalogue, contact us and we shall immediately remove her. Files for an exchange on tracker are given by users of a site, and the administration does not bear the responsibility for their maintenance. The request to not fill in the files protected by copyrights, and also files of the illegal maintenance!