Важное объявление!
У Нас Все раздачи мультитрекерные, при нуле пиров в релизах, можете смело вставать на закачку!
 
Автор Сообщение

HUNTER

Стаж:
4 года 4 месяца
Сообщений:
56848

Репутация: 101

[+] [-]
Вне форума [Профиль] [ЛС]

Buddhism and Modern Psychology
Производитель: Coursera / Princeton University
Сайт производителя: https://www.coursera.org/course/psychbuddhism
Автор: Robert Wright
Тематика: психология, буддизм, саморазвитие
Тип раздаваемого материала: Видеоурок
Продолжительность: ~9:48:00 6 weeks
Год выпуска: 2014
Язык: Английский
Перевод: Нету
Язык субтитров: English
Описание: Курс о современной психологии, традиционном буддизме и прослеживаемой связи между ними.
Советую, но подходить следует далеко без фанатизма

About the Course

The Buddha said that human suffering—ranging from anxiety to sadness to unfulfilled craving—results from not seeing reality clearly. He described a kind of meditation that promises to ease suffering by dispelling illusions about the world and ourselves. What does psychological science say about this diagnosis and prescription—and about the underlying model of the mind?

Содержание

01_Lecture_One-_The_Buddhist_Diagnosis
02_Lecture_Two-_The_Buddhist_Prescription
03_Lecture_Three-_Does_Your_Self_Exist
04_Lecture_Four-_A_New_Model_of_the_Mind
05_Lecture_Five-_Modules_and_Meditation
06_Lecture_Six-_What_is_Enlightenment
Доп. информация: Также внутри раздачи:
- субтитры на английском
- Docx-файл со ссылками на дополнительные ресурсы
Качество: WEBRip
Формат: MP4
Видео: AVC, 960x540, 16:9, 29.970 fps, 655 Kbps
Аудио: AAC, 44.1 KHz, 128 kbps, mono

Скриншоты

Отчет MediaInfo

General
Complete name : D:\MyDocs\Education\Buddhism_and_Modern_Psychology\01. Лекции\01_Lecture_One-_The_Buddhist_Diagnosis\01_Introduction-_Religious_Buddhism_and_Secular_Buddhism.mp4
Format : MPEG-4
Format profile : Base Media
Codec ID : isom
File size : 38.7 MiB
Duration : 11mn 29s
Overall bit rate : 470 Kbps
Writing application : Lavf55.10.100
Video
ID : 1
Format : AVC
Format/Info : Advanced Video Codec
Format profile : Main@L3.1
Format settings, CABAC : Yes
Format settings, ReFrames : 4 frames
Codec ID : avc1
Codec ID/Info : Advanced Video Coding
Duration : 11mn 29s
Bit rate : 333 Kbps
Width : 960 pixels
Height : 540 pixels
Display aspect ratio : 16:9
Frame rate mode : Constant
Frame rate : 29.970 fps
Color space : YUV
Chroma subsampling : 4:2:0
Bit depth : 8 bits
Scan type : Progressive
Bits/(Pixel*Frame) : 0.021
Stream size : 27.4 MiB (71%)
Writing library : x264 core 129 r2230 1cffe9f
Encoding settings : cabac=1 / ref=3 / deblock=1:0:0 / analyse=0x1:0x111 / me=hex / subme=7 / psy=1 / psy_rd=1.00:0.00 / mixed_ref=1 / me_range=16 / chroma_me=1 / trellis=1 / 8x8dct=0 / cqm=0 / deadzone=21,11 / fast_pskip=1 / chroma_qp_offset=-2 / threads=12 / lookahead_threads=2 / sliced_threads=0 / nr=0 / decimate=1 / interlaced=0 / bluray_compat=0 / constrained_intra=0 / bframes=3 / b_pyramid=2 / b_adapt=1 / b_bias=0 / direct=1 / weightb=1 / open_gop=0 / weightp=2 / keyint=250 / keyint_min=25 / scenecut=40 / intra_refresh=0 / rc_lookahead=40 / rc=crf / mbtree=1 / crf=28.0 / qcomp=0.60 / qpmin=0 / qpmax=69 / qpstep=4 / ip_ratio=1.40 / aq=1:1.00
Language : English
Audio
ID : 2
Format : AAC
Format/Info : Advanced Audio Codec
Format profile : LC
Codec ID : 40
Duration : 11mn 29s
Duration_LastFrame : -16ms
Bit rate mode : Constant
Bit rate : 128 Kbps
Channel(s) : 2 channels
Channel positions : Front: L R
Sampling rate : 44.1 KHz
Compression mode : Lossy
Stream size : 10.5 MiB (27%)
Language : English

_________________
Показать сообщения:    

Текущее время: Сегодня 02:00

Часовой пояс: GMT



Вы не можете начинать темы
Вы не можете отвечать на сообщения
Вы не можете редактировать свои сообщения
Вы не можете удалять свои сообщения
Вы не можете голосовать в опросах
Вы не можете прикреплять файлы к сообщениям
Вы не можете скачивать файлы
Наши партнеры: интернет магазин Ивановского трикотажа textilla.ru