Ивановский Торрент трекер
Яндекс.Погода
 

[Цитировать]
HUNTER

Cletus Seldin vs. Johnny Garcia & Undercard / Клетус Селдин - Джонни Гарсия + Андеркарт- Дата/Год выпуска: 27.02.2015
Вид спорта: Бокс
Язык комментариев: Английский
Канал: ESPN HD
Место проведения: "Paramount Theatre", Хантингтон, Нью-Йорк, США.-Описание: Боксёрский вечер от "ESPN". Главный бой которого между американцами Дэнни Гарсией [19-2-1] и не имеющим поражений Клетусом Селдино [15-0].-Автор рипа/записи: nabucghost-Качество: HDTV 720p
Формат: MKV
Видео: 1280x720 (16:9), 59,940 fps, H264, ~8000 kbps avg, ~0.144 bit/pixel
Аудио: 48 kHz, AC3, 2/0 (L,R) ch, ~256.00 kbps avg-

Список боев

1. Raymond Serrano [20-2] vs. Jeremy Bryan [17-5] - 10 Rounds in the Welterweight Division
2. Daniel Gonzalez [7-0-1] vs. Ken Alvarez [6-0-2] - 6 Rounds in the Welterweight Division
3. Cletus Seldin [15-0] vs. Johnny Garcia [19-2-1] - 10 Rounds in the Super Lightweight Division

Продолжительность

1. Raymond Serrano vs. Jeremy Bryan (0:44:23)
2. Daniel Gonzalez vs. Ken Alvarez (0:23:09)
3. Cletus Seldin vs. Johnny Garcia (0:26:20)
Bonus: Bob Arum Interview (0:07:21)

Скриншоты

MediaInfo

1.-.Raymond.Serrano.vs.Jeremy Bryan.60fps.HDTV.720p.x264-ENG-lrn.mkv.mkv
GeneralUnique ID : 250593785033933635491759989476033727868 (0xBC869B81AC8EF6B1A2A8A3C610B28D7C)Complete name : E:\uTorrent.Temp\Done\Cletus Seldin vs. Johnny Garcia & Undercard [60fps, HDTV 720p, ENG]\1.-.Raymond.Serrano.vs.Jeremy Bryan.60fps.HDTV.720p.x264-ENG-lrn.mkv.mkvFormat : MatroskaFormat version : Version 4 / Version 2File size : 2.58 GiBDuration : 44mn 23sOverall bit rate : 8 337 KbpsMovie name : 'Cletus Seldin vs. Johnny Garcia & Undercard [60fps, HDTV 720p, ENG]' by lrn © 2015Encoded date : UTC 2010-02-22 21:41:31Writing application : mkvmerge v5.9.0 ('On The Loose') built on Dec 9 2012 15:37:01Writing library : libebml v1.3.0 + libmatroska v1.4.0
VideoID : 1Format : AVCFormat/Info : Advanced Video CodecFormat profile : High@L4.0Format settings, CABAC : YesFormat settings, ReFrames : 2 framesFormat settings, GOP : M=3, N=13Codec ID : V_MPEG4/ISO/AVCDuration : 44mn 23sBit rate : 7 915 KbpsWidth : 1 280 pixelsHeight : 720 pixelsDisplay aspect ratio : 16:9Frame rate mode : ConstantFrame rate : 60.000 fpsOriginal frame rate : 59.940 fpsColor space : YUVChroma subsampling : 4:2:0Bit depth : 8 bitsScan type : ProgressiveBits/(Pixel*Frame) : 0.143Stream size : 2.45 GiB (95%)Default : YesForced : No
AudioID : 2Format : AC-3Format/Info : Audio Coding 3Mode extension : CM (complete main)Format settings, Endianness : BigCodec ID : A_AC3Duration : 44mn 23sBit rate mode : ConstantBit rate : 256 KbpsChannel(s) : 2 channelsChannel positions : Front: L RSampling rate : 48.0 KHzBit depth : 16 bitsCompression mode : LossyDelay relative to video : -2msStream size : 81.3 MiB (3%)Language : EnglishDefault : YesForced : No

2.-.Daniel.Gonzalez.vs.Ken Alvarez.60fps.HDTV.720p.x264-ENG-lrn.mkv.mkv

GeneralUnique ID : 178324743973080853335671628672258327392 (0x862818AF4336D9AE8422FA86BDE8C360)Complete name : E:\uTorrent.Temp\Done\Cletus Seldin vs. Johnny Garcia & Undercard [60fps, HDTV 720p, ENG]\2.-.Daniel.Gonzalez.vs.Ken Alvarez.60fps.HDTV.720p.x264-ENG-lrn.mkv.mkvFormat : MatroskaFormat version : Version 4 / Version 2File size : 1.36 GiBDuration : 23mn 9sOverall bit rate : 8 409 KbpsMovie name : 'Cletus Seldin vs. Johnny Garcia & Undercard [60fps, HDTV 720p, ENG]' by lrn © 2015Encoded date : UTC 2010-02-22 21:41:31Writing application : mkvmerge v5.9.0 ('On The Loose') built on Dec 9 2012 15:37:01Writing library : libebml v1.3.0 + libmatroska v1.4.0
VideoID : 1Format : AVCFormat/Info : Advanced Video CodecFormat profile : High@L4.0Format settings, CABAC : YesFormat settings, ReFrames : 3 framesCodec ID : V_MPEG4/ISO/AVCDuration : 23mn 9sBit rate : 7 986 KbpsWidth : 1 280 pixelsHeight : 720 pixelsDisplay aspect ratio : 16:9Frame rate mode : ConstantFrame rate : 60.000 fpsOriginal frame rate : 59.940 fpsStandard : ComponentColor space : YUVChroma subsampling : 4:2:0Bit depth : 8 bitsScan type : ProgressiveBits/(Pixel*Frame) : 0.144Stream size : 1.29 GiB (95%)Default : YesForced : NoColor primaries : BT.709Transfer characteristics : BT.709Matrix coefficients : BT.709Color range : Limited
AudioID : 2Format : AC-3Format/Info : Audio Coding 3Mode extension : CM (complete main)Format settings, Endianness : BigCodec ID : A_AC3Duration : 23mn 9sBit rate mode : ConstantBit rate : 256 KbpsChannel(s) : 2 channelsChannel positions : Front: L RSampling rate : 48.0 KHzBit depth : 16 bitsCompression mode : LossyDelay relative to video : 30msStream size : 42.4 MiB (3%)Language : EnglishDefault : YesForced : No

3.-.Cletus.Seldin.vs.Johnny Garcia.60fps.HDTV.720p.x264-ENG-lrn.mkv.mkv

GeneralUnique ID : 198579510876801601165546694855640508205 (0x956505CB56815EC7862AE1FDC910672D)Complete name : E:\uTorrent.Temp\Done\Cletus Seldin vs. Johnny Garcia & Undercard [60fps, HDTV 720p, ENG]\3.-.Cletus.Seldin.vs.Johnny Garcia.60fps.HDTV.720p.x264-ENG-lrn.mkv.mkvFormat : MatroskaFormat version : Version 4 / Version 2File size : 1.54 GiBDuration : 26mn 20sOverall bit rate : 8 362 KbpsMovie name : 'Cletus Seldin vs. Johnny Garcia & Undercard [60fps, HDTV 720p, ENG]' by lrn © 2015Encoded date : UTC 2010-02-22 21:41:31Writing application : mkvmerge v5.9.0 ('On The Loose') built on Dec 9 2012 15:37:01Writing library : libebml v1.3.0 + libmatroska v1.4.0
VideoID : 1Format : AVCFormat/Info : Advanced Video CodecFormat profile : High@L4.0Format settings, CABAC : YesFormat settings, ReFrames : 3 framesCodec ID : V_MPEG4/ISO/AVCDuration : 26mn 20sBit rate : 7 939 KbpsWidth : 1 280 pixelsHeight : 720 pixelsDisplay aspect ratio : 16:9Frame rate mode : ConstantFrame rate : 60.000 fpsOriginal frame rate : 59.940 fpsStandard : ComponentColor space : YUVChroma subsampling : 4:2:0Bit depth : 8 bitsScan type : ProgressiveBits/(Pixel*Frame) : 0.144Stream size : 1.46 GiB (95%)Default : YesForced : NoColor primaries : BT.709Transfer characteristics : BT.709Matrix coefficients : BT.709Color range : Limited
AudioID : 2Format : AC-3Format/Info : Audio Coding 3Mode extension : CM (complete main)Format settings, Endianness : BigCodec ID : A_AC3Duration : 26mn 20sBit rate mode : ConstantBit rate : 256 KbpsChannel(s) : 2 channelsChannel positions : Front: L RSampling rate : 48.0 KHzBit depth : 16 bitsCompression mode : LossyDelay relative to video : 3msStream size : 48.2 MiB (3%)Language : EnglishDefault : YesForced : No

Bonus.Bob.Arum.Interview.60fps.HDTV.720p.x264-ENG-lrn.mkv.mkv

GeneralUnique ID : 184759173075408153380687352277627955650 (0x8AFF5288528AF96FACF237338DA1E9C2)Complete name : E:\uTorrent.Temp\Done\Cletus Seldin vs. Johnny Garcia & Undercard [60fps, HDTV 720p, ENG]\Bonus.Bob.Arum.Interview.60fps.HDTV.720p.x264-ENG-lrn.mkv.mkvFormat : MatroskaFormat version : Version 4 / Version 2File size : 432 MiBDuration : 7mn 21sOverall bit rate : 8 220 KbpsMovie name : 'Cletus Seldin vs. Johnny Garcia & Undercard [60fps, HDTV 720p, ENG]' by lrn © 2015Encoded date : UTC 2010-02-22 21:41:31Writing application : mkvmerge v5.9.0 ('On The Loose') built on Dec 9 2012 15:37:01Writing library : libebml v1.3.0 + libmatroska v1.4.0
VideoID : 1Format : AVCFormat/Info : Advanced Video CodecFormat profile : High@L4.0Format settings, CABAC : YesFormat settings, ReFrames : 3 framesCodec ID : V_MPEG4/ISO/AVCDuration : 7mn 21sBit rate : 7 800 KbpsWidth : 1 280 pixelsHeight : 720 pixelsDisplay aspect ratio : 16:9Frame rate mode : ConstantFrame rate : 59.880 fpsOriginal frame rate : 59.940 fpsStandard : ComponentColor space : YUVChroma subsampling : 4:2:0Bit depth : 8 bitsScan type : ProgressiveBits/(Pixel*Frame) : 0.141Stream size : 410 MiB (95%)Default : YesForced : NoColor primaries : BT.709Transfer characteristics : BT.709Matrix coefficients : BT.709Color range : Limited
AudioID : 2Format : AC-3Format/Info : Audio Coding 3Mode extension : CM (complete main)Format settings, Endianness : BigCodec ID : A_AC3Duration : 7mn 21sBit rate mode : ConstantBit rate : 256 KbpsChannel(s) : 2 channelsChannel positions : Front: L RSampling rate : 48.0 KHzBit depth : 16 bitsCompression mode : LossyDelay relative to video : 27msStream size : 13.5 MiB (3%)Language : EnglishDefault : YesForced : No


Показать сообщения:    

Текущее время: 17-Дек 06:29

Часовой пояс: UTC ± 0


Вы не можете начинать темы
Вы не можете отвечать на сообщения
Вы не можете редактировать свои сообщения
Вы не можете удалять свои сообщения
Вы не можете голосовать в опросах
Вы не можете прикреплять файлы к сообщениям
Вы не можете скачивать файлы

!ВНИМАНИЕ!
Сайт не предоставляет электронные версии произведений, а занимается лишь коллекционированием и каталогизацией ссылок, присылаемых и публикуемых на форуме нашими читателями. Если вы являетесь правообладателем какого-либо представленного материала и не желаете, чтобы ссылка на него находилась в нашем каталоге, свяжитесь с нами, и мы незамедлительно удалим ее. Файлы для обмена на трекере предоставлены пользователями сайта, и администрация не несет ответственности за их содержание. Просьба не заливать файлы, защищенные авторскими правами, а также файлы нелегального содержания!