Ивановский Торрент трекер
Яндекс.Погода
 

[Quote]
HUNTER

Чудо-юдо
Год выхода: 2018
Выпущено: Россия / Фонд Кино
Жанр: мультфильм, фэнтези
Продолжительность: 01:14:55
Перевод: Не требуется
Субтитры: нет-Режиссер: Артем Лукичев-В ролях: Антон Макарский, Ирина Медведева, Наталия Медведева, Александр Пожаров, Людмила Артемьева, Федор Добронравов, Иван Добронравов, Диомид Виноградов-О фильме: В некотором царстве, в некотором государстве жил-был Царь Еремей с тремя сыновьями. Был он занят целыми днями важнейшим государственным делом — диктовал мемуары о своих несуществующих подвигах. И вот однажды, средь бела дня обнаружилось на границе Царства чудище драконьей породы, а проще говоря, Чудо-Юдо. И послал Царь сыновей чудище это победить и славу царского рода приумножить. Но пока старшие сыновья спали, а Иван с Чудом-Юдом сражался, выяснилось, что пропала Царевна Варвара из Соседнего Царства. И отправился Иван на её поиски. Ну и Чудо-Юдо с собой прихватил. На всякий случай. Вдруг в дороге пригодится! Не знал только Иван, что Дракон этот — совсем не тот, за кого себя выдаёт.-Качество: WEB-DLRip
Формат: AVI
Видео: 688x368 (1.87:1), 24.000 fps, XviD build 73 ~1246 kbps avg, 0.20 bit/pixel
Аудио: 48 kHz, MPEG Layer 3, 2 ch, ~128.00 kbps avg-Сэмпл-

MediaInfo

Код:Format : AVI
Format/Info : Audio Video Interleave
File size : 742 MiB
Duration : 1 h 14 min
Overall bit rate : 1 384 kb/s
Writing application : VirtualDubMod 1.5.10.3 | www.virtualdub-fr.org || (build 2550/release)
Writing library : VirtualDubMod build 2550/release
Video
ID : 0
Format : MPEG-4 Visual
Format profile : Advanced [email protected]
Format settings : BVOP1 / Custom Matrix
Format settings, BVOP : 1
Format settings, QPel : No
Format settings, GMC : No warppoints
Format settings, Matrix : Custom
Codec ID : XVID
Codec ID/Hint : XviD
Duration : 1 h 14 min
Bit rate : 1 247 kb/s
Width : 688 pixels
Height : 368 pixels
Display aspect ratio : 1.85:1
Frame rate : 24.000 FPS
Color space : YUV
Chroma subsampling : 4:2:0
Bit depth : 8 bits
Scan type : Progressive
Compression mode : Lossy
Bits/(Pixel*Frame) : 0.205
Stream size : 668 MiB (90%)
Writing library : XviD 73
Audio
ID : 1
Format : MPEG Audio
Format version : Version 1
Format profile : Layer 3
Codec ID : 55
Codec ID/Hint : MP3
Duration : 1 h 14 min
Bit rate mode : Constant
Bit rate : 128 kb/s
Channel(s) : 2 channels
Sampling rate : 48.0 kHz
Frame rate : 41.667 FPS (1152 SPF)
Compression mode : Lossy
Stream size : 68.6 MiB (9%)
Alignment : Aligned on interleaves
Interleave, duration : 42 ms (1.00 video frame)
Interleave, preload duratio : 504 ms
Writing library : LAME3.99r
Encoding settings : -m s -V 4 -q 2 -lowpass 17 -b 128

Скриншоты



Display posts:    

Current time is: 04-Jul 18:24

All times are UTC ± 0


You cannot post new topics in this forum
You cannot reply to topics in this forum
You cannot edit your posts in this forum
You cannot delete your posts in this forum
You cannot vote in polls in this forum
You cannot attach files in this forum
You cannot download files in this forum

!ATTENTION!
The site does not give electronic versions of products, and is engaged only in a collecting and cataloguing of the references sent and published at a forum by our readers. If you are the legal owner of any submitted material and do not wish that the reference to it was in our catalogue, contact us and we shall immediately remove her. Files for an exchange on tracker are given by users of a site, and the administration does not bear the responsibility for their maintenance. The request to not fill in the files protected by copyrights, and also files of the illegal maintenance!