Ивановский Торрент трекер
Яндекс.Погода
 

[Цитировать]
HUNTER

Чудо
Страна: Россия
Студия: "Централ Партнершип", "Амкарт", компания "Гарант"
Жанр: драма
Год выпуска: 2009
Продолжительность: 01:50:25
Субтитры: нет
Режиссер: Александр Прошкин
В ролях: Мария Бурова, Сергей Маковецкий, Константин Хабенский, Полина Кутепова, Виктор Шамиров, Александр Потапов, Виталий Кищенко, Ольга Лапшина, Зураб Кипшидзе, Дима Опанасенко, Вячеслав Батраков, Наталья Гандзюк, Камиль Тукаев, Владимир Кабалин, Анна Уколова, Тимофей Трибунцев, Сергей Новиков, Дарья Румянцева, Вячеслав Степанян, Ольга Дегтярева, Степан Пивкин, Альберт Альберт, Виктор Ананьин, Валерия Буданкова, Геннадий Вершинин, Екатерина Давыдова-Тонгур, Сергей Клепиков, Валерий Латрицкий, Алексей Нестеров, Иван Осипов, Валерий Отставных, Марина Соколова, Александр Сорокин, Александр Толмачёв, Жанна Чирва, Владимир Шибанков, Петр Янышев, Олег Данилевский, Анна Ефимова, Галина Строганова
Описание: СССР, 1956 год. Татьяна Скрыпникова, разбитная грубоватая девица, живущая с матерью в провинциальном городке Гречанске рядом с крупным металлургическим комбинатом, на гулянке, которую она устроила по случаю дня рождения, так и не дождалась приезда своего кавалера - Николая, журналиста областной газеты. Расстроившись по этому поводу - танцевать не с кем - и выпив лишнего, на "белый" танец выбирает она в партнеры Николая Угодника: хватает со стены икону и начинает с ней танцевать - да так и застывает, как каменная. Это стояние продолжается несколько месяцев. Жители городка напуганы необычайным событием, которое обрастает слухами и домыслами и становится объектом тщательного расследования на самом высоком уровне...
Доп. информация: Дебют в кино Марии Буровой.
Сценарий: Юрий Арабов
Операторы: Геннадий Карюк, Александр Карюк
Художник: Екатерина Татарская
Композитор: Дмитрий Усердов
Текст песни: Ярослав Мелихов
Вокал: Сергей Кузнецов ("Рок-н-ролл"); хор под управлением Георгия Васильева (народная мелодия "Нагун" в обработке Дмитрия Усердова)
Соло на духовых: Сергей Клевенский ("Нагун")
Рояль: Ирина Попова ("Этюд № 23" Фредерика Шопена)
Награды: специальный приз жюри XXXI ММКФ за режиссуру "Серебряный Георгий" (2009)
Ограничения на просмотр: зрителям, достигшим 14 лет

Интересные факты

  • Значительная часть съёмок проходила в пригороде Тулы — посёлке Косая Гора. Был построен дом с видом на Косогорский металлургический завод, подобный тому, в котором, по легенде, жила Зоя. Также съёмки проходили на вокзале, в отделении милиции Ясногорска, в Заокской типографии, в здании «Тулаугля» и в Тульском доме офицеров, где, по сюжету, проживает Хрущёв. Последние планы фильма сняты в музее-усадьбе «Ясная Поляна».
  • Фильм основан на самарской городской легенде о стоянии Зои. События якобы происходили в 1956 году в Куйбышеве. Утверждается, что в доме 84 по улице Чкалова жила некая Клавдия Болонкина. Её сын Николай в новогоднюю ночь решил пригласить друзей. Среди приглашенных была девушка Николая, Зоя Карнаухова. Все подруги были с парнями, Зоя всё сидела одна, Коля задерживался. Когда начались танцы, она заявила: «Если нет моего Николая, буду с Николой Угодником танцевать!» И направилась к углу, где висели иконы. Друзья ужаснулись: «Зоя, это грех», - но она сказала: «Если есть Бог, пусть он меня накажет!» Взяла икону, прижала к груди. Вошла в круг танцующих и вдруг застыла, словно вросла в пол. Её невозможно было сдвинуть с места, а икону нельзя было взять из рук — она будто приклеилась намертво. Внешних признаков жизни девушка не подавала. Но в области сердца был слышен едва уловимый стук. О событии быстро узнал весь город, милиция боялась подходить к обездвиженной Зое, врачи ничем не могли помочь, когда они пытались сделать укол, иглы ломались и не проходили в кожу. Приходили священники и тоже ничем не могли помочь, но потом появился иеромонах Серафим. Он смог вытащить икону из рук Зои и позже сказал, что её стояние закончится в день Пасхи. Так оно и произошло, Зоя простояла 128 дней.
  • Режиссёр Александр Прошкин считает эту историю былью.
  • Источником истории послужил фельетон «Дикий случай», опубликованый в городской газете «Волжская коммуна» 24 января 1956 года по решению 13-й Куйбышевской областной партконференции, созванной в срочном порядке в связи с религиозными волнениями в городе. Сохранилась также стенограмма заседания Куйбышевского обкома КПСС, где разбирались «слухи и бабьи домыслы».
  • Никаких более серьезных документальных свидетельств в свободном доступе не имеется. Говорят, что такие документы были в архиве Самарского ГУВД, здание которого полностью сгорело 10 февраля 1999 года. Погибло 57 человек.
  • В 2011 году режиссер Андрей Лазарев в цикле "Дело тёмное" с Вениамином Смеховым" снял документальный фильм "Каменная Зоя: правда или миф?"
Бонусы: есть, анонсы (ролики)
Меню: есть, анимированное, озвученное
Тип релиза: DVD9
Контейнер: DVD-Video
Видео: PAL 16:9 (720x576), 25 fps, Auto Letterboxed, VBR, 9637 kbps
Аудио: Russian (Dolby AC3, 6 ch)

DVDInfo

Title: Chudo
Size: 7.81 Gb ( 8 190 182,00 KBytes ) - DVD-9
Enabled regions: 1, 2, 3, 4, 5, 6, 7, 8
VTS_01 :
Play Length: 01:50:25
Video: PAL 16:9 (720x576) VBR, Auto Letterboxed
Audio: Russian (Dolby AC3, 6 ch)
VTS_02 :
Play Length: 00:01:38+00:01:34+00:02:04
Video: PAL 4:3 (720x576) VBR
Audio: Russian (Dolby AC3, 2 ch)

MediaInfo

Полное имя : D:\Chudo\VIDEO_TS\VTS_01_1.VOB
Формат : MPEG-PS
Размер файла : 1024 Мбайт
Продолжительность : 15 м.
Режим общего битрейта : Переменный
Общий поток : 9411 Кбит/сек
Видео
Идентификатор : 224 (0xE0)
Формат : MPEG Video
Версия формата : Version 2
Профиль формата : Main@Main
Параметр BVOP формата : Да
Параметр матрицы формата : Выборочная
Параметр GOP формата : M=3, N=15
Продолжительность : 15 м.
Вид битрейта : Переменный
Битрейт : 8776 Кбит/сек
Максимальный битрейт : 9000 Кбит/сек
Ширина : 720 пикселей
Высота : 576 пикселей
Соотношение сторон : 16:9
Частота кадров : 25,000 кадров/сек
Стандарт вещания : PAL
Цветовое пространство : YUV
Субдискретизация насыщенности : 4:2:0
Битовая глубина : 8 бит
Тип развёртки : Чересстрочная
Порядок развёртки : Верхнее поле первое
Метод сжатия : С потерями
Бит/(Пиксели*Кадры) : 0.846
TimeCode_FirstFrame : 00:00:00:00
TimeCode_Source : Group of pictures header
Размер потока : 954 Мбайт (93%)
Аудио
Идентификатор : 189 (0xBD)-128 (0x80)
Формат : AC-3
Формат/Информация : Audio Coding 3
Расширение режима : CM (complete main)
Параметр Endianness формата : Big
Режим смешивания : DVD-Video
Продолжительность : 15 м.
Вид битрейта : Постоянный
Битрейт : 448 Кбит/сек
Каналы : 6 каналов
Расположение каналов : Front: L C R, Side: L R, LFE
Частота : 48,0 КГц
Битовая глубина : 16 бит
Метод сжатия : С потерями
Размер потока : 48,7 Мбайт (5%)

Сканы обложки и диска

Скриншоты меню

Скриншоты доп. материалов

Скриншоты

ТОРРЕНТ-ФАЙЛ ПЕРЕЗАЛИТ 24.01.2018 В СВЯЗИ С ЗАМЕНОЙ НЕПОЛНОЦЕННОГО DVD5 НА ПОЛНОЦЕННЫЙ DVD9.


Показать сообщения:    

Текущее время: 19-Янв 10:24

Часовой пояс: UTC ± 0


Вы не можете начинать темы
Вы не можете отвечать на сообщения
Вы не можете редактировать свои сообщения
Вы не можете удалять свои сообщения
Вы не можете голосовать в опросах
Вы не можете прикреплять файлы к сообщениям
Вы не можете скачивать файлы

!ВНИМАНИЕ!
Сайт не предоставляет электронные версии произведений, а занимается лишь коллекционированием и каталогизацией ссылок, присылаемых и публикуемых на форуме нашими читателями. Если вы являетесь правообладателем какого-либо представленного материала и не желаете, чтобы ссылка на него находилась в нашем каталоге, свяжитесь с нами, и мы незамедлительно удалим ее. Файлы для обмена на трекере предоставлены пользователями сайта, и администрация не несет ответственности за их содержание. Просьба не заливать файлы, защищенные авторскими правами, а также файлы нелегального содержания!