Ивановский Торрент трекер
Яндекс.Погода
DL-List and Torrent activity
None
 
     
 
 

[Quote]
HUNTER

Черепашки-ниндзя 2Teenage Mutant Ninja Turtles:
Out of the Shadows

Год выпуска: 2016
Страна: США, Гонконг, Китай, Канада (Paramount Pictures, Nickelodeon Movies, Platinum Dunes, China Movie Media Group, Alibaba Pictures)
Жанр: Фантастика, Боевик, Комедия, Приключения
Продолжительность: 01:52:09
Перевод: Профессиональный (дублированный)
Режиссер: Дэйв Грин / Dave Green
В ролях: Меган Фокс, Уилл Арнетт, Лора Линни, Стивен Амелл, Ноэль Фишер, Джереми Ховард, Пит Пложек, Алан Ричсон, Тайлер Перри, Брайан Ти
Описание: Долгое время черепашки-ниндзя скрывались от людей в лабиринтах городской канализации. На протяжении нескольких лет учитель Сплинтер обучал их боевым искусствам и прививал им чувство справедливости. В один прекрасный момент им пришлось подняться наверх, чтобы спасти Нью-Йорк от Шредера, предводителя Клана Футов, захватившего власть в Нью-Йорке. Вместе с отважным репортером Эйприл и ее оператором Верном, бесстрашные воины смогли одержать победу и очистить любимый город от преступности. Леонардо, Микеланджело, Рафаэль и Донателло нашли свое предназначение в этом мире и стали защитниками своего города. Они навели порядок в Нью-Йорке и с чистой совестью могли отправиться на покой, но однажды им вновь пришлось столкнуться с могущественным врагом, угрожающим их городу.
Качество: BDrip
Контейнер: MKV
Формат 3D: SideBySide / Горизонтальная стереопара
Порядок ракурсов: левый ракурс первый
Видео кодек: x264
Аудио кодек: AC3
Видео: AVC / High@L5.0 / 23,976 fps / 3840х1080 / 18 Мбит/сек
Аудио: Русский / AC3 / 48 KHz / 5.1 ch / 640 Кбит/сек
Аудио 2: Английский / AC3 / 48 KHz / 5.1 ch / 640 Кбит/сек
Дополнительная информация
САМЫЙ ПРОСТОЙ СПОСОБ ПРОСМОТРА.
Подключаете обычный, без всяких 3D видеокарт, ПК или ноутбук по кабелю HDMI к любому 3D-TV (даже не Ultra HD) и смотрите фильм с помощью MPC-HC, выставив в настройках плеера "Растянуть до размера экрана".
Главное преимущество этого метода - поддержка 3D субтитров.

MediaInfo

General
Unique ID : 218634041433205592241864175076625867192 (0xA47B627D64DF08D4992A09914E2BE1B8)
Complete name : I:\1132455\TMNT-2 (2016) 3D-SBS RipByF0X.mkv
Format : Matroska
Format version : Version 4 / Version 2
File size : 15.1 GiB
Duration : 1h 52mn
Overall bit rate : 19.3 Mbps
Movie name : TeenageMutantNinjaTurtles2(2016)3D-SBS RipByEuGenius
Encoded date : UTC 2010-02-22 21:41:31
Writing application : mkvmerge v5.9.0 ('On The Loose') built on Dec 9 2012 15:37:01
Writing library : libebml v1.3.0 + libmatroska v1.4.0
Video
ID : 1
Format : AVC
Format/Info : Advanced Video Codec
Format profile : High@L5
Format settings, CABAC : Yes
Format settings, ReFrames : 4 frames
Muxing mode : Header stripping
Codec ID : V_MPEG4/ISO/AVC
Duration : 1h 52mn
Bit rate : 18.0 Mbps
Width : 3 840 pixels
Height : 1 080 pixels
Display aspect ratio : 3.556
Frame rate mode : Constant
Frame rate : 23.976 fps
Color space : YUV
Chroma subsampling : 4:2:0
Bit depth : 8 bits
Scan type : Progressive
Bits/(Pixel*Frame) : 0.181
Stream size : 13.8 GiB (91%)
Writing library : x264 core 144 r2525 40bb568
Encoding settings : cabac=1 / ref=4 / deblock=1:-3:-3 / analyse=0x3:0x112 / me=umh / subme=10 / psy=1 / psy_rd=1.00:0.05 / mixed_ref=1 / me_range=48 / chroma_me=1 / trellis=2 / 8x8dct=1 / cqm=0 / deadzone=21,11 / fast_pskip=0 / chroma_qp_offset=-2 / threads=34 / lookahead_threads=6 / sliced_threads=0 / nr=0 / decimate=1 / interlaced=0 / bluray_compat=0 / constrained_intra=0 / bframes=8 / b_pyramid=2 / b_adapt=2 / b_bias=0 / direct=3 / weightb=1 / open_gop=0 / weightp=2 / keyint=250 / keyint_min=23 / scenecut=40 / intra_refresh=0 / rc_lookahead=60 / rc=2pass / mbtree=1 / bitrate=18000 / ratetol=1.0 / qcomp=0.60 / qpmin=10 / qpmax=69 / qpstep=4 / cplxblur=20.0 / qblur=0.5 / vbv_maxrate=50000 / vbv_bufsize=40000 / nal_hrd=none / filler=0 / frame-packing=3 / ip_ratio=1.40 / aq=3:0.90
Default : Yes
Forced : No
Audio #1
ID : 2
Format : AC-3
Format/Info : Audio Coding 3
Mode extension : CM (complete main)
Format settings, Endianness : Big
Muxing mode : Header stripping
Codec ID : A_AC3
Duration : 1h 52mn
Bit rate mode : Constant
Bit rate : 640 Kbps
Channel(s) : 6 channels
Channel positions : Front: L C R, Side: L R, LFE
Sampling rate : 48.0 KHz
Compression mode : Lossy
Stream size : 513 MiB (3%)
Language : Russian
Default : Yes
Forced : Yes
Audio #2
ID : 3
Format : AC-3
Format/Info : Audio Coding 3
Mode extension : CM (complete main)
Format settings, Endianness : Big
Muxing mode : Header stripping
Codec ID : A_AC3
Duration : 1h 52mn
Bit rate mode : Constant
Bit rate : 640 Kbps
Channel(s) : 6 channels
Channel positions : Front: L C R, Side: L R, LFE
Sampling rate : 48.0 KHz
Compression mode : Lossy
Stream size : 513 MiB (3%)
Language : English
Default : No
Forced : No
Text #1
ID : 4
Format : PGS
Muxing mode : zlib
Codec ID : S_HDMV/PGS
Codec ID/Info : Picture based subtitle format used on BDs/HD-DVDs
Title : 2D Форс. для BD
Language : Russian
Default : No
Forced : No
Text #2
ID : 5
Format : PGS
Muxing mode : zlib
Codec ID : S_HDMV/PGS
Codec ID/Info : Picture based subtitle format used on BDs/HD-DVDs
Title : 2D для BD
Language : Russian
Default : No
Forced : No
Text #3
ID : 6
Format : PGS
Muxing mode : zlib
Codec ID : S_HDMV/PGS
Codec ID/Info : Picture based subtitle format used on BDs/HD-DVDs
Title : 2D SDH for BD
Language : English
Default : No
Forced : No
Text #4
ID : 7
Format : UTF-8
Codec ID : S_TEXT/UTF8
Codec ID/Info : UTF-8 Plain Text
Title : 2D Форс. для TV
Language : Russian
Default : No
Forced : No
Text #5
ID : 8
Format : UTF-8
Codec ID : S_TEXT/UTF8
Codec ID/Info : UTF-8 Plain Text
Title : 2D для TV
Language : Russian
Default : No
Forced : No
Text #6
ID : 9
Format : UTF-8
Codec ID : S_TEXT/UTF8
Codec ID/Info : UTF-8 Plain Text
Title : 2D SDH for TV
Language : English
Default : No
Forced : No
Text #7
ID : 10
Format : PGS
Muxing mode : zlib
Codec ID : S_HDMV/PGS
Codec ID/Info : Picture based subtitle format used on BDs/HD-DVDs
Title : 3D Форс. для MPC-HC
Language : Russian
Default : Yes
Forced : Yes
Text #8
ID : 11
Format : PGS
Muxing mode : zlib
Codec ID : S_HDMV/PGS
Codec ID/Info : Picture based subtitle format used on BDs/HD-DVDs
Title : 3D для MPC-HC
Language : Russian
Default : No
Forced : No
Text #9
ID : 12
Format : PGS
Muxing mode : zlib
Codec ID : S_HDMV/PGS
Codec ID/Info : Picture based subtitle format used on BDs/HD-DVDs
Title : 3D SDH for MPC-HC
Language : English
Default : No
Forced : No

Скриншоты






Display posts:    

Current time is: 22-Jul 16:48

All times are UTC ± 0


You cannot post new topics in this forum
You cannot reply to topics in this forum
You cannot edit your posts in this forum
You cannot delete your posts in this forum
You cannot vote in polls in this forum
You cannot attach files in this forum
You cannot download files in this forum

!ATTENTION!
The site does not give electronic versions of products, and is engaged only in a collecting and cataloguing of the references sent and published at a forum by our readers. If you are the legal owner of any submitted material and do not wish that the reference to it was in our catalogue, contact us and we shall immediately remove her. Files for an exchange on tracker are given by users of a site, and the administration does not bear the responsibility for their maintenance. The request to not fill in the files protected by copyrights, and also files of the illegal maintenance!