Ивановский Торрент трекер
Яндекс.Погода
DL-List and Torrent activity
None
 
     
 
 

[Quote]
HUNTER

Человек-паук: Через вселенные
Spider-Man: Into the Spider-Verse
«Enter a universe where more than one wears the mask»- Страна: США
Студия: Columbia Pictures, Marvel, Sony Pictures Animation, Pascal Pictures
Жанр: мультфильм, фантастика, боевик, приключения, семейный
Год выпуска: 2018
Продолжительность: 01:56:50
Перевод: Профессиональный (дублированный) RUS, UKR [BD EUR]
Оригинальная аудиодорожка: Английский
Субтитры: Русские (Форсированные, Полные), Украинские (Форсированные, Полные), Английские (Full, SDH, Commentary)--Режиссер: Боб Персичетти / Bob Persichetti, Питер Рэмзи / Peter Ramsey, Родни Ротман / Rodney Rothman--В ролях: Шамеик Мур, Джейк Джонсон, Хейли Стайнфелд, Махершала Али, Брайан Тайри Генри, Лили Томлин, Луна Лорен Велес, Зои Кравиц, Джон Мулэйни, Кимико Гленн...--Описание:Мы всё знаем о Питере Паркере. Он спас город, влюбился, а потом спасал город снова и снова... Но все это - в нашем измерении. А что если в результате работы гигантского коллайдера откроется окно из одного измерения в другое? Найдется ли в нем свой Человек-паук? И как он будет выглядеть? Приготовьтесь к тому, что в разных вселенных могут быть разные Люди-пауки и однажды им придется собраться вместе для борьбы с почти непобедимым врагом.--
IMDb: 8.50 (195 254)
Sample
релиз: --Качество видео: BDRip-AVC Spider-Man: Into the Spider-Verse (2018) BDRemux. Rutor.
Формат: MKV
Видео: AVC 4146 kb/s 1104 x 462 (2.390) 23.976 fps
Аудио 1: AC3 Dolby Digital, 3/2 (L,C,R,l,r) + LFE ch, 48.0 KHz, 448 Kbps Rus
Аудио 2: AC3 Dolby Digital, 3/2 (L,C,R,l,r) + LFE ch, 48.0 KHz, 448 Kbps Ukr
Аудио 3: AC3 Dolby Digital, 3/2 (L,C,R,l,r) + LFE ch, 48.0 KHz, 448 Kbps Eng
Формат субтитров: softsub (SRT)

Скриншоты


MediaInfo/x264

x264

x264 [info]: frame I:1714 Avg QP:15.25 size:103847
x264 [info]: frame P:44852 Avg QP:17.74 size: 40847
x264 [info]: frame B:121506 Avg QP:20.04 size: 13360
x264 [info]: consecutive B-frames: 4.5% 4.6% 11.0% 47.2% 12.2% 11.1% 2.7% 4.7% 0.9% 0.5% 0.2% 0.6%
x264 [info]: mb I I16..4: 6.5% 64.3% 29.2%
x264 [info]: mb P I16..4: 1.0% 13.4% 5.3% P16..4: 24.6% 28.1% 15.3% 4.1% 0.7% skip: 7.4%
x264 [info]: mb B I16..4: 0.2% 1.9% 0.8% B16..8: 28.5% 21.1% 5.6% direct: 5.7% skip:36.2% L0:43.8% L1:40.0% BI:16.2%
x264 [info]: 8x8 transform intra:67.1% inter:48.7%
x264 [info]: direct mvs spatial:99.9% temporal:0.1%
x264 [info]: coded y,uvDC,uvAC intra: 87.2% 90.7% 83.7% inter: 25.4% 29.9% 19.5%
x264 [info]: i16 v,h,dc,p: 40% 27% 7% 26%
x264 [info]: i8 v,h,dc,ddl,ddr,vr,hd,vl,hu: 10% 11% 11% 10% 12% 10% 12% 10% 14%
x264 [info]: i4 v,h,dc,ddl,ddr,vr,hd,vl,hu: 10% 11% 7% 9% 14% 11% 13% 10% 14%
x264 [info]: i8c dc,h,v,p: 48% 22% 16% 14%
x264 [info]: Weighted P-Frames: Y:6.8% UV:5.0%
x264 [info]: ref P L0: 48.3% 10.1% 16.4% 6.9% 4.8% 3.7% 3.1% 1.9% 1.7% 1.5% 1.6% 0.2% 0.0%
x264 [info]: ref B L0: 75.2% 10.4% 5.4% 2.8% 1.8% 1.4% 1.3% 0.9% 0.6% 0.3%
x264 [info]: ref B L1: 95.0% 5.0%
x264 [info]: kb/s:4146.49
x264 [total]: encoded 168072 frames, 13.09 fps, 4146.49 kb/s, duration 3:34:00.77
Format : Matroska
Format version : Version 4
File size : 4.48 GiB
Duration : 1 h 56 min
Overall bit rate : 5 493 kb/s
Encoded date : UTC 2019-05-12 17:36:12
Writing application : mkvmerge v8.2.0 ('World of Adventure') 64bit
Writing library : libebml v1.3.1 + libmatroska v1.4.2
Video
ID : 1
Format : AVC
Format/Info : Advanced Video Codec
Format profile : High@L4.1
Format settings : CABAC / 11 Ref Frames
Format settings, CABAC : Yes
Format settings, RefFrames : 11 frames
Codec ID : V_MPEG4/ISO/AVC
Duration : 1 h 56 min
Bit rate : 4 146 kb/s
Width : 1 104 pixels
Height : 462 pixels
Display aspect ratio : 2.40:1
Frame rate mode : Constant
Frame rate : 23.976 (24000/1001) FPS
Color space : YUV
Chroma subsampling : 4:2:0
Bit depth : 8 bits
Scan type : Progressive
Bits/(Pixel*Frame) : 0.339
Stream size : 3.38 GiB (75%)
Title : Spider-Man: Into the Spider-Verse (2018) [rutracker.org]
Writing library : x264 core 152 r2851kMod ba24899
Encoding settings : cabac=1 / ref=11 / deblock=1:-3:-2 / analyse=0x3:0x133 / me=umh / subme=11 / psy=1 / fade_compensate=0.00 / psy_rd=1.00:0.05 / mixed_ref=1 / me_range=48 / chroma_me=1 / trellis=2 / 8x8dct=1 / cqm=0 / deadzone=21,11 / fast_pskip=0 / chroma_qp_offset=-3 / threads=12 / lookahead_threads=3 / sliced_threads=0 / nr=0 / decimate=1 / interlaced=0 / bluray_compat=0 / constrained_intra=0 / bframes=11 / b_pyramid=2 / b_adapt=2 / b_bias=0 / direct=3 / weightb=1 / open_gop=0 / weightp=2 / keyint=250 / keyint_min=23 / scenecut=40 / intra_refresh=0 / rc_lookahead=60 / rc=crf / mbtree=0 / crf=17.3000 / qcomp=0.60 / qpmin=0 / qpmax=69 / qpstep=4 / vbv_maxrate=50000 / vbv_bufsize=62500 / crf_max=0.0 / nal_hrd=none / filler=0 / ip_ratio=1.40 / pb_ratio=1.30 / aq=3:0.90
Language : English
Default : Yes
Forced : No
Audio #1
ID : 2
Format : AC-3
Format/Info : Audio Coding 3
Commercial name : Dolby Digital
Codec ID : A_AC3
Duration : 1 h 56 min
Bit rate mode : Constant
Bit rate : 448 kb/s
Channel(s) : 6 channels
Channel layout : L R C LFE Ls Rs
Sampling rate : 48.0 kHz
Frame rate : 31.250 FPS (1536 SPF)
Bit depth : 16 bits
Compression mode : Lossy
Stream size : 374 MiB (8%)
Title : DUB [Blu-ray Disc 1080p EUR]
Language : Russian
Service kind : Complete Main
Default : Yes
Forced : No
Audio #2
ID : 3
Format : AC-3
Format/Info : Audio Coding 3
Commercial name : Dolby Digital
Codec ID : A_AC3
Duration : 1 h 56 min
Bit rate mode : Constant
Bit rate : 448 kb/s
Channel(s) : 6 channels
Channel layout : L R C LFE Ls Rs
Sampling rate : 48.0 kHz
Frame rate : 31.250 FPS (1536 SPF)
Bit depth : 16 bits
Compression mode : Lossy
Stream size : 374 MiB (8%)
Title : DUB [Blu-ray Disc 1080p EUR]
Language : Ukrainian
Service kind : Complete Main
Default : No
Forced : No
Audio #3
ID : 4
Format : AC-3
Format/Info : Audio Coding 3
Commercial name : Dolby Digital
Codec ID : A_AC3
Duration : 1 h 56 min
Bit rate mode : Constant
Bit rate : 448 kb/s
Channel(s) : 6 channels
Channel layout : L R C LFE Ls Rs
Sampling rate : 48.0 kHz
Frame rate : 31.250 FPS (1536 SPF)
Bit depth : 16 bits
Compression mode : Lossy
Stream size : 374 MiB (8%)
Title : Original
Language : English
Service kind : Complete Main
Default : No
Forced : No
Text #1
ID : 5
Format : UTF-8
Codec ID : S_TEXT/UTF8
Codec ID/Info : UTF-8 Plain Text
Duration : 1 h 42 min
Bit rate : 0 b/s
Count of elements : 16
Stream size : 659 Bytes (0%)
Title : Forced
Language : Russian
Default : Yes
Forced : No
Text #2
ID : 6
Format : UTF-8
Codec ID : S_TEXT/UTF8
Codec ID/Info : UTF-8 Plain Text
Duration : 1 h 55 min
Bit rate : 82 b/s
Count of elements : 1467
Stream size : 70.3 KiB (0%)
Title : Full
Language : Russian
Default : No
Forced : No
Text #3
ID : 7
Format : UTF-8
Codec ID : S_TEXT/UTF8
Codec ID/Info : UTF-8 Plain Text
Duration : 1 h 55 min
Bit rate : 1 b/s
Count of elements : 42
Stream size : 1.33 KiB (0%)
Title : Forced
Language : Ukrainian
Default : No
Forced : No
Text #4
ID : 8
Format : UTF-8
Codec ID : S_TEXT/UTF8
Codec ID/Info : UTF-8 Plain Text
Duration : 1 h 55 min
Bit rate : 81 b/s
Count of elements : 1468
Stream size : 68.9 KiB (0%)
Title : Full
Language : Ukrainian
Default : No
Forced : No
Text #5
ID : 9
Format : UTF-8
Codec ID : S_TEXT/UTF8
Codec ID/Info : UTF-8 Plain Text
Duration : 1 h 55 min
Bit rate : 54 b/s
Count of elements : 1389
Stream size : 46.4 KiB (0%)
Title : Full
Language : English
Default : No
Forced : No
Text #6
ID : 10
Format : UTF-8
Codec ID : S_TEXT/UTF8
Codec ID/Info : UTF-8 Plain Text
Duration : 1 h 56 min
Bit rate : 81 b/s
Count of elements : 2271
Stream size : 69.5 KiB (0%)
Title : SDH
Language : English
Default : No
Forced : No
Menu
00:00:00.000 : en:Chapter 01
00:09:03.793 : en:Chapter 02
00:14:04.719 : en:Chapter 03
00:18:51.714 : en:Chapter 04
00:29:39.027 : en:Chapter 05
00:34:14.636 : en:Chapter 06
00:40:34.432 : en:Chapter 07
00:44:22.827 : en:Chapter 08
00:48:06.884 : en:Chapter 09
00:58:45.855 : en:Chapter 10
01:06:04.460 : en:Chapter 11
01:09:55.483 : en:Chapter 12
01:20:00.003 : en:Chapter 13
01:24:54.923 : en:Chapter 14
01:33:33.399 : en:Chapter 15
01:55:26.920 : en:Chapter 16


Display posts:    

Current time is: 21-May 19:18

All times are UTC ± 0


You cannot post new topics in this forum
You cannot reply to topics in this forum
You cannot edit your posts in this forum
You cannot delete your posts in this forum
You cannot vote in polls in this forum
You cannot attach files in this forum
You cannot download files in this forum

!ATTENTION!
The site does not give electronic versions of products, and is engaged only in a collecting and cataloguing of the references sent and published at a forum by our readers. If you are the legal owner of any submitted material and do not wish that the reference to it was in our catalogue, contact us and we shall immediately remove her. Files for an exchange on tracker are given by users of a site, and the administration does not bear the responsibility for their maintenance. The request to not fill in the files protected by copyrights, and also files of the illegal maintenance!