Ивановский Торрент трекер
Яндекс.Погода
 

[Quote]
HUNTER

Информация о фильме
Название: Человек-невидимка
Оригинальное название: The Invisible Man
Год выхода: 2020
Жанр: Ужасы, фантастика, триллер, детектив
Страна: Австралия, США, Канада, Великобритания
Перевод: Дублированный | iTunes
Продолжительность: 02:04:22
Режиссер: Ли Уоннелл
В ролях: Элизабет Мосс, Оливер Джексон-Коэн, Харриет Дайер, Элдис Ходж, Сторм Рейд, Майкл Дорман, Бенедикт Харди, Рени Лим, Брайан Миган, Ник Киси и др.
О фильме: Под покровом ночи Сесилия бежит из высокотехнологичного дома своего бойфренда Адриана, усыпив его снотворным и отключив системы наблюдения и сигнализацию. Теперь девушка живёт у друга, боится выходить на улицу и страдает от мании преследования, когда узнает, что её бывший мучитель покончил с собой. Адриан, лидер рынка оптических разработок, оставил Сесилии большое наследство, и, наконец-то, жизнь девушки должна наладиться. Но вскоре она вновь начинает чувствовать тревогу, как будто Адриан незаметно к ней подкрадывается — ведь невозможно спрятаться от преследователя, которого не видишь.

Файл
Качество: WEB-DL 1080p
Видео: MPEG-4 AVC, 1916x800, 4606 kbps, 23,976 fps
Звук: русский, AC3, 5.1 ch, 48 kHz, 384 kbps | iTunes
Субтитры: русские (форс. вшитые)

MI

Общее
Уникальный идентификатор : 197825837128896734055491745562728239148 (0x94D3DECF41F8493DB3058D7DE786902C)
Полное имя : G:Torrent2CHelovekNevidimkaWEBDL1080p.mkv
Формат : Matroska
Версия формата : Version 4 / Version 2
Размер файла : 4,34 Гбайт
Продолжительность : 2 ч. 4 м.
Общий поток : 4992 Кбит/сек
Дата кодирования : UTC 2020-03-27 09:56:29
Программа кодирования : mkvmerge v9.5.0 ('Quiet Fire') 64bit
Библиотека кодирования : libebml v1.3.4 + libmatroska v1.4.5
Видео
Идентификатор : 1
Формат : AVC
Формат/Информация : Advanced Video Codec
Профиль формата : [email protected]
Настройки формата : CABAC / 5 Ref Frames
Параметр CABAC формата : Да
Параметр RefFrames формата : 5 кадров
Идентификатор кодека : V_MPEG4/ISO/AVC
Продолжительность : 2 ч. 4 м.
Битрейт : 4607 Кбит/сек
Ширина : 1916 пикселей
Высота : 800 пикселей
Соотношение сторон : 2,40:1
Режим частоты кадров : Постоянный
Частота кадров : 23,976 кадра/сек
Цветовое пространство : YUV
Субдискретизация насыщенности : 4:2:0
Битовая глубина : 8 бит
Тип развёртки : Прогрессивная
Бит/(Пиксели*Кадры) : 0.125
Размер потока : 4,00 Гбайт (92%)
Заголовок : Sisendrovich(R)
Язык : English
Default : Да
Forced : Нет
Цветовой диапазон : Limited
Основные цвета : BT.709
Характеристики трансфера : BT.709
Коэффициенты матрицы : BT.709
Аудио
Идентификатор : 2
Формат : AC-3
Формат/Информация : Audio Coding 3
Параметр Endianness формата : Big
Идентификатор кодека : A_AC3
Продолжительность : 2 ч. 4 м.
Вид битрейта : Постоянный
Битрейт : 384 Кбит/сек
Каналы : 6 каналов
Расположение каналов : Front: L C R, Side: L R, LFE
Частота : 48,0 КГц
Частота кадров : 31,250 кадров/сек (1536 SPF)
Битовая глубина : 16 бит
Метод сжатия : С потерями
Размер потока : 342 Мбайт (8%)
Заголовок : rus
Язык : Russian
Default : Да
Forced : Нет
Меню
00:00:00.000 : en:1
00:11:06.082 : en:2
00:16:09.468 : en:3
00:19:16.655 : en:4
00:25:27.984 : en:5
00:35:52.566 : en:6
00:39:50.512 : en:7
00:46:35.792 : en:8
00:52:42.200 : en:9
01:01:22.345 : en:10
01:09:00.136 : en:11
01:14:50.069 : en:12
01:19:24.259 : en:13
01:24:46.873 : en:14
01:30:25.670 : en:15
01:35:25.261 : en:16
01:39:33.676 : en:17
01:43:04.553 : en:18
01:48:55.028 : en:19
01:53:39.145 : en:20

Скриншоты


Релиз от:

[Quote]
iv_admin

А без регистрации и смс нельзя?


Quick Reply

Name:

               
       
     
Heads necessary to send messages to enable JavaScript
Display posts:    

Current time is: 14-Jul 09:47

All times are UTC ± 0


You can post new topics in this forum
You can reply to topics in this forum
You cannot edit your posts in this forum
You cannot delete your posts in this forum
You cannot vote in polls in this forum
You cannot attach files in this forum
You cannot download files in this forum

!ATTENTION!
The site does not give electronic versions of products, and is engaged only in a collecting and cataloguing of the references sent and published at a forum by our readers. If you are the legal owner of any submitted material and do not wish that the reference to it was in our catalogue, contact us and we shall immediately remove her. Files for an exchange on tracker are given by users of a site, and the administration does not bear the responsibility for their maintenance. The request to not fill in the files protected by copyrights, and also files of the illegal maintenance!