Ивановский Торрент трекер
Яндекс.Погода
DL-List and Torrent activity
None
 
     
 
style="text-align: center"
 

[Quote]
HUNTER

Человеческая Вселенная (Сезон 1: серия 1) / Human Universe
Дата/Год выпуска: 2014
Страна: Великобритания
Жанр: Научно-познавательный
Продолжительность: 1 ~00:59:01
Перевод: Профессиональный (двухголосый закадровый) «Омикрон»
Режиссер: Эндрю Коэн / Andrew Cohen
Описание: Профессор Брайан Кокс задаст самые важные вопросы какие только мы можем задать. Одни ли мы ? Почему мы здесь ? Какое наше будущее ? Насколько нам известно, мы уникальны для нашей вселенной. Люди единственные существа способные задаваться фундаментальными вопросами о своём месте в картине мироздания. Присоединитесь к нему в потрясающем торжестве жизни человека, как он исследует свои истоки, наше место и нашу судьбу во Вселенной.

Информация по сериалу WikipediA - Human Universe
качество: HDRip
формат: AVI
Видео: Xvid 720x400 25fps 1457kbps
Аудио: Dolby AC3 48000Hz stereo 192kbps

Список выпусков/серий

Эпизод 1: Человек умелый - Человек космический / Apeman Spaceman - Начиная в Эфиопии, профессор Брайан Кокс обнаруживает, какую ключевую роль играла вселенная в нашем подъеме от питекантропа к космонавту. Город Петру в Иордании, где он рассматривает следующую часть нашей истории - рождения цивилизации, и затем на Казахстане, где он свидетельствует возвращение астронавтов из космического пространства.

MediaInfo

GeneralComplete name : E:\Films\Dokumentary\Human Universe\S1-E01-Apeman Spaceman.aviFormat : AVIFormat/Info : Audio Video InterleaveFile size : 700 MiBDuration : 59mn 0sOverall bit rate : 1 660 KbpsWriting application : VirtualDubMod 1.5.10.3 | www.virtualdub-fr.org || (build 2550/release)Writing library : VirtualDubMod build 2550/release
VideoID : 0Format : MPEG-4 VisualFormat profile : Advanced Simple@L5Format settings, BVOP : 1Format settings, QPel : NoFormat settings, GMC : No warppointsFormat settings, Matrix : Default (H.263)Codec ID : XVIDCodec ID/Hint : XviDDuration : 59mn 0sBit rate : 1 458 KbpsWidth : 720 pixelsHeight : 400 pixelsDisplay aspect ratio : 16:9Frame rate : 25.000 fpsColor space : YUVChroma subsampling : 4:2:0Bit depth : 8 bitsScan type : ProgressiveCompression mode : LossyBits/(Pixel*Frame) : 0.202Stream size : 615 MiB (88%)Writing library : XviD 1.2.1 (UTC 2008-12-04)
AudioID : 1Format : AC-3Format/Info : Audio Coding 3Mode extension : CM (complete main)Format settings, Endianness : BigCodec ID : 2000Duration : 59mn 0sBit rate mode : ConstantBit rate : 192 KbpsChannel(s) : 2 channelsChannel positions : Front: L RSampling rate : 48.0 KHzBit depth : 16 bitsCompression mode : LossyStream size : 81.0 MiB (12%)Alignment : Split accross interleavesInterleave, duration : 40 ms (1.00 video frame)Interleave, preload duration : 500 ms


Display posts:    

Current time is: 22-Aug 12:22

All times are UTC ± 0


You cannot post new topics in this forum
You cannot reply to topics in this forum
You cannot edit your posts in this forum
You cannot delete your posts in this forum
You cannot vote in polls in this forum
You cannot attach files in this forum
You cannot download files in this forum

!ATTENTION!
The site does not give electronic versions of products, and is engaged only in a collecting and cataloguing of the references sent and published at a forum by our readers. If you are the legal owner of any submitted material and do not wish that the reference to it was in our catalogue, contact us and we shall immediately remove her. Files for an exchange on tracker are given by users of a site, and the administration does not bear the responsibility for their maintenance. The request to not fill in the files protected by copyrights, and also files of the illegal maintenance!