Ивановский Торрент трекер
Яндекс.Погода
DL-List and Torrent activity
None
 
     
 
 

[Quote]
HUNTER

Чебурашка / Cheburashka
Страна: Япония, Россия
Жанр: мультфильм, детский, семейный
Продолжительность: 01:15:51
Год выпуска: 2013
Перевод: Профессиональный (дублированный)
Русские субтитры: нет
Режиссёр: Макото Накамура / Makoto Nakamura
Роли озвучивали:
Лариса Брохман
Владимир Ферапонтов
Ольга Зверева
Дмитрий Филимонов
Александр Пожаров
Александр Груздев
Ольга Шорохова
Гарри Бардин
Владимир Орёл
Антон Морозов
Описание: Мультфильм из трех историй: «Чебурашка и цирк», «Чебурашка идет в зоопарк» и «Советы Шапокляк». Прологом служит история о появлении Чебурашки в ящике из-под апельсинов, его знакомстве с крокодилом Геной и обретении друзей.
«Чебурашка и цирк» — история о дружбе и мечте. Гена и Чебурашка помогают девочке Маше научиться ходить по канату и осуществляют ее заветное желание — выступать в цирке. В серии «Чебурашка идет в зоопарк» Гена заболел, и Чебурашка отправился вместо него «работать крокодилом» в зоопарке. Возникает веселая путаница. Заключительная история — «Советы Шапокляк». Герои приходят на помощь фокуснику, потерявшему внучку. А Шапокляк открывает бюро платных бесполезных советов.
Дополнительная информация: Запись со спутника Eutelsat 36A/Eutelsat 36B, телеканал "Семейное HD".
Семпл: http://multi-up.com/1041380
Релиз:
Качество: HDTV 1080i
Формат: TS
Видео: AVC, 1920x1080i, 25.000 fps, 5887 kbps
Аудио: Русский (Dolby AC3 5.1, 48 kHz, 448 kbps)
Субтитры: Отсутствуют

Подробные технические данные

ОбщееИдентификатор : 1 (0x1)Полное имя : E:\Cheburashka_HDTV_1080i_2013.tsФормат : MPEG-TSРазмер файла : 3,53 ГбайтПродолжительность : 1 ч. 15 м.Режим общего битрейта : ПеременныйОбщий поток : 6669 Кбит/секМаксимальный общий битрейт : 35,5 Мбит/сек
ВидеоИдентификатор : 4113 (0x1011)Идентификатор меню : 1 (0x1)Формат : AVCФормат/Информация : Advanced Video CodecПрофиль формата : Main@L4.0Параметр CABAC формата : ДаПараметр ReFrames формата : 3 кадраПараметр GOP формата : M=4, N=32Идентификатор кодека : 27Продолжительность : 1 ч. 15 м.Вид битрейта : ПеременныйБитрейт : 5887 Кбит/секМаксимальный битрейт : 40,0 Мбит/секШирина : 1920 пикселейВысота : 1080 пикселейСоотношение сторон : 16:9Частота кадров : 25,000 кадров/секСтандарт вещания : ComponentЦветовое пространство : YUVСубдискретизация насыщенности : 4:2:0Битовая глубина : 8 битТип развёртки : ЧересстрочнаяПорядок развёртки : Верхнее поле первоеБит/(Пиксели*Кадры) : 0.114Размер потока : 3,12 Гбайт (88%)Основные цвета : BT.709Характеристики трансфера : BT.709Коэффициенты матрицы : BT.709colour_range : Limited
АудиоИдентификатор : 4352 (0x1100)Идентификатор меню : 1 (0x1)Формат : AC-3Формат/Информация : Audio Coding 3Расширение режима : CM (complete main)Параметр Endianness формата : BigИдентификатор кодека : 129Продолжительность : 1 ч. 15 м.Вид битрейта : ПостоянныйБитрейт : 448 Кбит/секКаналы : 6 каналовРасположение каналов : Front: L C R, Side: L R, LFEЧастота : 48,0 КГцБитовая глубина : 16 битМетод сжатия : С потерямиЗадержка видео : 147 мс.Размер потока : 243 Мбайт (7%)Язык : Russian

Скриншоты



Display posts:    

Current time is: 11-Dec 23:06

All times are UTC ± 0


You cannot post new topics in this forum
You cannot reply to topics in this forum
You cannot edit your posts in this forum
You cannot delete your posts in this forum
You cannot vote in polls in this forum
You cannot attach files in this forum
You cannot download files in this forum

!ATTENTION!
The site does not give electronic versions of products, and is engaged only in a collecting and cataloguing of the references sent and published at a forum by our readers. If you are the legal owner of any submitted material and do not wish that the reference to it was in our catalogue, contact us and we shall immediately remove her. Files for an exchange on tracker are given by users of a site, and the administration does not bear the responsibility for their maintenance. The request to not fill in the files protected by copyrights, and also files of the illegal maintenance!