Ивановский Торрент трекер
Яндекс.Погода
 

[Quote]
HUNTER

Чародеи (2 серии)
Страна: СССР
Жанр: музыкальная комедия
Год выпуска: 1982
Продолжительность: 02:26:34
Перевод: Не требуется
Субтитры: нет
Оригинальная аудиодорожка: русский
Режиссёр: Константин Бромберг
В ролях: Александра Яковлева, Александр Абдулов, Екатерина Васильева, Валентин Гафт, Валерий Золотухин, Эммануил Виторган, Михаил Светин, Роман Филиппов, Анна Ашимова, Семён Фарада, Евгения Абрамова, Ирина Бельгер, Вера Смоляницкая, Лилия Макеева, Леонид Харитонов, Николай Парфёнов, Глеб Плаксин, Евгений Весник, Елизавета Никищихина
Описание: По мотивам повести братьев Стругацких "Понедельник начинается в субботу". Фильм о том, что даже в институте, где работают волшебники, интриги и зависть могут разрушить счастье влюбленных. Но, как известно, именно любовь способна творить подлинные чудеса.
Семпл: https://yadi.sk/i/wu0I-7oB3Rnw9C
Тип релиза: HDTV 1080i
Контейнер: TS
Видео: AVC 1920x1080 (16:9); 25.000 fps; ~7 517 kb/s
Аудио: MPEG Audio 48000Hz 2.0 192 Кбит/сек

MediaInfo

General
ID : 1 (0x1)
Complete name : M:\111__2018\Чародеи_1982_Россия.1.HD_2018.01.07.ts
Format : MPEG-TS
File size : 8.30 GiB
Duration : 2 h 26 min
Overall bit rate mode : Variable
Overall bit rate : 8 111 kb/s
Video
ID : 2292 (0x8F4)
Menu ID : 2291 (0x8F3)
Format : AVC
Format/Info : Advanced Video Codec
Format profile : [email protected]
Format settings, CABAC : Yes
Format settings, ReFrames : 4 frames
Codec ID : 27
Duration : 2 h 26 min
Bit rate : 7 517 kb/s
Width : 1 920 pixels
Height : 1 080 pixels
Display aspect ratio : 16:9
Frame rate : 25.000 FPS
Standard : Component
Color space : YUV
Chroma subsampling : 4:2:0
Bit depth : 8 bits
Scan type : Interlaced
Scan type, store method : Separated fields
Scan order : Top Field First
Bits/(Pixel*Frame) : 0.145
Stream size : 7.70 GiB (93%)
Color range : Limited
Color primaries : BT.709
Transfer characteristics : BT.709
Matrix coefficients : BT.709
Audio
ID : 2295 (0x8F7)
Menu ID : 2291 (0x8F3)
Format : MPEG Audio
Format version : Version 1
Format profile : Layer 2
Codec ID : 3
Duration : 2 h 26 min
Bit rate mode : Constant
Bit rate : 192 kb/s
Channel(s) : 2 channels
Sampling rate : 48.0 kHz
Compression mode : Lossy
Stream size : 201 MiB (2%)
Language : Russian

Скриншоты





Display posts:    

Current time is: 13-Jul 12:11

All times are UTC ± 0


You cannot post new topics in this forum
You cannot reply to topics in this forum
You cannot edit your posts in this forum
You cannot delete your posts in this forum
You cannot vote in polls in this forum
You cannot attach files in this forum
You cannot download files in this forum

!ATTENTION!
The site does not give electronic versions of products, and is engaged only in a collecting and cataloguing of the references sent and published at a forum by our readers. If you are the legal owner of any submitted material and do not wish that the reference to it was in our catalogue, contact us and we shall immediately remove her. Files for an exchange on tracker are given by users of a site, and the administration does not bear the responsibility for their maintenance. The request to not fill in the files protected by copyrights, and also files of the illegal maintenance!