Ивановский Торрент трекер
Яндекс.Погода
 

[Цитировать]
HUNTER

Celldweller - Live Upon A Blackstar DVD- Дата выпуска: 12.06.2012
Страна: Detroit, USA/Moscow, Russia/Tokyo, Japan
Жанр: Industrial/Electronic
Продолжительность: ~2:30:00
Описание: Этот DVD содержит огромное количество материала: от выступлений, снятых на профессиональные камеры, так и более часа документального кино о самом туре Celldweller'а 2010/2011 годов, документальное видео о туре в России, все 11 бэкграунд-видео, которые сопровождают выступления исполнителя, официальные видео на "Own Little World (Klayton's We Will Never Die Mix)" и "Frozen (Celldweller vs. Blue Stahli)", а также промо-видео. Настоящая роскошь для фаната работ Celldweller'а.
- 1. Through The Gates (Live)
2. The Best It's Gonna Get vs. Tainted (Live)
3. Frozen (Live)
4. Own Little World (Live)
5. Symbiont (Live)
6. Louder Than Words (Live)
7. Ursa Minor (Live)
8. Fadeaway (Live)
9. So Long Sentiment vs. Eon (Live)
10. The Lucky One (Live)
11. Switchback (Live)
- Качество: DVD9
Формат: MPEG-PS
Video Codec: MPEG Video
Audio Codec: AC-3
Video: 720x480 (16:9), 7700 kbps, 29,97 fps
Audio #1: 192 kbps, 48 kHz, 2 channels
Audio #2: 448 kbps, 48 kHz, 6 channels
-

Скриншот меню

Screenshots

MI

Общее
Полное имя : H:\Celldweller - Live Upon A Blackstar DVD\VTS_07_1.VOB
Формат : MPEG-PS
Размер файла : 1024 Мбайт
Продолжительность : 20 м.
Общий поток : 6910 Кбит/сек
Видео
Идентификатор : 224 (0xE0)
Формат : MPEG Video
Версия формата : Version 2
Профиль формата : Main@Main
Параметр BVOP формата : Да
Параметр матрицы формата : Выборочная
Параметр GOP формата : M=3, N=12
Продолжительность : 20 м.
Вид битрейта : Переменный
Битрейт : 6132 Кбит/сек
Максимальный битрейт : 7700 Кбит/сек
Ширина : 720 пикселей
Высота : 480 пикселей
Соотношение сторон : 16:9
Частота кадров : 23,976 кадра/сек
Стандарт вещания : NTSC
Цветовое пространство : YUV
Субдискретизация насыщенности : 4:2:0
Битовая глубина : 8 бит
Тип развёртки : Прогрессивная
Порядок развёртки : 2:3 Pulldown
Метод сжатия : С потерями
Бит/(Пиксели*Кадры) : 0.740
Размер потока : 909 Мбайт (89%)
Аудио #1
Идентификатор : 189 (0xBD)-128 (0x80)
Формат : AC-3
Формат/Информация : Audio Coding 3
Расширение режима : CM (complete main)
Режим смешивания : DVD-Video
Продолжительность : 20 м.
Вид битрейта : Постоянный
Битрейт : 448 Кбит/сек
Каналы : 6 каналов
Расположение каналов : Front: L C R, Side: L R, LFE
Частота : 48,0 КГц
Битовая глубина : 16 бит
Метод сжатия : С потерями
Размер потока : 66,4 Мбайт (6%)
Аудио #2
Идентификатор : 189 (0xBD)-129 (0x81)
Формат : AC-3
Формат/Информация : Audio Coding 3
Расширение режима : CM (complete main)
Режим смешивания : DVD-Video
Продолжительность : 20 м.
Вид битрейта : Постоянный
Битрейт : 192 Кбит/сек
Каналы : 2 канала
Расположение каналов : Front: L R
Частота : 48,0 КГц
Битовая глубина : 16 бит
Метод сжатия : С потерями
Размер потока : 28,5 Мбайт (3%)
- Group of music принимает заявки в стол заказов
Показать сообщения:    

Текущее время: 19-Окт 00:48

Часовой пояс: UTC - 1


Вы не можете начинать темы
Вы не можете отвечать на сообщения
Вы не можете редактировать свои сообщения
Вы не можете удалять свои сообщения
Вы не можете голосовать в опросах
Вы не можете прикреплять файлы к сообщениям
Вы не можете скачивать файлы

!ВНИМАНИЕ!
Сайт не предоставляет электронные версии произведений, а занимается лишь коллекционированием и каталогизацией ссылок, присылаемых и публикуемых на форуме нашими читателями. Если вы являетесь правообладателем какого-либо представленного материала и не желаете, чтобы ссылка на него находилась в нашем каталоге, свяжитесь с нами, и мы незамедлительно удалим ее. Файлы для обмена на трекере предоставлены пользователями сайта, и администрация не несет ответственности за их содержание. Просьба не заливать файлы, защищенные авторскими правами, а также файлы нелегального содержания!