Ивановский Торрент трекер
Яндекс.Погода
DL-List and Torrent activity
None
 
     
 
 

[Quote]
HUNTER

Проект "Ответы морякам"
Название: Ответы морякам
Год выпуска: 2013 г.
Автор: Burn-media.com
Жанр: Видеоурок
Язык: Русский
Продолжительность: 04:44:53
Описание: "Ответы морякам" - видеоблог автора, который в течение многих лет проработав в крюинге, дает вам ответы на те вопросы, о которых с вами в любом другом месте просто не будут разговаривать. Как и почему одни уходят в рейс, а другие месяцами ждут на берегу? Как представить себя судовладельцу с лучшей стороны и что для этого нужно? Все о необходимых документах, непростых процедурах и повседневных делах моряка на берегу.
Это взгяд изнутри на то, что раньше вы видели лишь со стороны. Это интересно.

Список видео-ответов

  • Marlins и CES. Тесты на английский язык и профпригодность. [00:09:51] [123.0MB]
  • Вас утвердили на судно, но посадки нет уже несколько месяцев. [00:06:15] [79.6MB]
  • Влияют ли оценки за обучение в университете на вероятность ухода в рейс? [00:07:00] [87.5MB]
  • Все про Австралийскую визу. [00:04:02] [51.6MB]
  • Вся правда о Blacklist, «блеклистах», «черных списках». [00:22:46] [284.2MB]
  • Выбор типа судна для первого контракта. [00:14:43] [182.1MB]
  • За что вы платите деньги крюингу? [00:06:07] [76.7MB]
  • Как забрать (вернуть) паспорт из крюинга? [00:05:41] [71.5MB]
  • Как крюинг из тысячи выбирает одного моряка? Как работает крюинг? [00:21:03] [262.0MB]
  • Как понять, что вас кидают с контрактом? [00:14:12] [176.6MB]
  • Как работать с судовладельцем напрямую? [00:08:12] [102.2MB]
  • Как с рыбодобывающих судов перейти на торговый флот? [00:07:40] [96.6MB]
  • Как скрыть неудачный контракт? [00:06:16] [78.5MB]
  • Как уйти в рейс? Почему так трудно уйти в рейс? [00:09:59] [124.9MB]
  • Как часто нужно напоминать о себе крюингам? [00:06:49] [84.8MB]
  • Кто такие кадеты, практиканты, мессбои? [00:08:55] [111.0MB]
  • Максимальный возраст для работы в море. Возраст для перехода в другую компанию. [00:06:56] [86.9MB]
  • Морская медкомиссия. [00:08:11] [101.7MB]
  • От автора. [00:02:45] [35.5MB]
  • Передают ли крюинги информацию в налоговую? [00:12:45] [120.3MB]
  • Пересечение границы и необходимые документы, прописка, вылет и прилет. [00:08:28] [105.5MB]
  • Самостоятельное открытие американской визы. [00:13:21] [167.2MB]
  • Сертификаты выданы одной датой. Это плохо. [00:01:25] [18.5MB]
  • Сколько стоит уйти в рейс? [00:07:20] [91.7MB]
  • Стоит ли обращаться в ITF Чем это грозит вам в будущем? [00:13:09] [163.3MB]
  • Стоит ли понижаться в должности при переходе в оффшор или на суда большего дедвейта? [00:08:44] [109.5MB]
  • Структура Судовладелец-Shipmanager-Крюинг. Кто есть кто на конкретных примерах. [00:09:57] [124.8MB]
  • Флаговые (подфлажные) документы. [00:10:43] [132.9MB]
  • Ходить по крюингам или рассылать анкеты? [00:04:25] [55.1MB]
  • Что будет и что делать, если опоздал на самолет? [00:10:47] [135.7MB]
  • Что дает вам промоушн (promotion) при трудоустройстве в другую компанию? [00:06:13] [77.9MB]

Скриншоты

MediaInfo

General
Complete name : D:\Burncom_Ответы морякам\
Format : MPEG-4
Format profile : Base Media
Codec ID : isom
Overall bit rate mode : Variable
Overall bit rate : 1 730 Kbps
Encoded date : UTC 2013-09-28 08:02:40
Tagged date : UTC 2013-09-28 08:02:40
Writing application : FormatFactory : www.pcfreetime.com
Video
ID : 1
Format : AVC
Format/Info : Advanced Video Codec
Format profile : High@L3.0
Format settings, CABAC : No
Format settings, ReFrames : 1 frame
Codec ID : avc1
Codec ID/Info : Advanced Video Coding
Duration : 14mn 43s
Bit rate : 1 600 Kbps
Maximum bit rate : 10.2 Mbps
Width : 1 280 pixels
Height : 720 pixels
Display aspect ratio : 16:9
Frame rate mode : Constant
Frame rate : 24.000 fps
Color space : YUV
Chroma subsampling : 4:2:0
Bit depth : 8 bits
Scan type : Progressive
Bits/(Pixel*Frame) : 0.072
Stream size : 169 MiB (93%)
Writing library : x264 core 116 r2019 9cc407d
Encoding settings : cabac=0 / ref=1 / deblock=1:0:0 / analyse=0x3:0x113 / me=hex / subme=7 / psy=1 / psy_rd=1.00:0.00 / mixed_ref=0 / me_range=16 / chroma_me=1 / trellis=1 / 8x8dct=1 / cqm=0 / deadzone=21,11 / fast_pskip=1 / chroma_qp_offset=-2 / threads=6 / sliced_threads=0 / nr=0 / decimate=1 / interlaced=0 / bluray_compat=0 / constrained_intra=0 / bframes=0 / weightp=2 / keyint=250 / keyint_min=24 / scenecut=40 / intra_refresh=0 / rc_lookahead=40 / rc=abr / mbtree=1 / bitrate=1600 / ratetol=1.0 / qcomp=0.60 / qpmin=0 / qpmax=69 / qpstep=4 / ip_ratio=1.40 / aq=1:1.00
Encoded date : UTC 2013-09-28 08:02:40
Tagged date : UTC 2013-09-28 08:03:05
Audio
ID : 2
Format : AAC
Format/Info : Advanced Audio Codec
Format profile : LC
Codec ID : 40
Bit rate mode : Variable
Bit rate : 125 Kbps
Maximum bit rate : 249 Kbps
Channel(s) : 2 channels
Channel positions : Front: L R
Sampling rate : 44.1 KHz
Compression mode : Lossy
Stream size : 13.2 MiB (7%)
Encoded date : UTC 2013-09-28 08:02:59
Tagged date : UTC 2013-09-28 08:03:05
Доп. информация: Если у Вас имеются дополнительные вопросы по теме, то пройдя по ссылке на канал автора можно их задать.


Display posts:    

Current time is: 27-Jan 03:49

All times are UTC ± 0


You cannot post new topics in this forum
You cannot reply to topics in this forum
You cannot edit your posts in this forum
You cannot delete your posts in this forum
You cannot vote in polls in this forum
You cannot attach files in this forum
You cannot download files in this forum

!ATTENTION!
The site does not give electronic versions of products, and is engaged only in a collecting and cataloguing of the references sent and published at a forum by our readers. If you are the legal owner of any submitted material and do not wish that the reference to it was in our catalogue, contact us and we shall immediately remove her. Files for an exchange on tracker are given by users of a site, and the administration does not bear the responsibility for their maintenance. The request to not fill in the files protected by copyrights, and also files of the illegal maintenance!