Важное объявление!
У Нас Все раздачи мультитрекерные, при нуле пиров в релизах, можете смело вставать на закачку!
 
Автор Сообщение

HUNTER

Стаж:
4 года 5 месяцев
Сообщений:
60886

Репутация: 101

[+] [-]
Вне форума [Профиль] [ЛС]


Britney Spears
Criminal
-Год производства: 2011
Страна: USA
Жанр: Pop / Ballad
Продолжительность: 00:05:26-Описание:
«Criminal» — четвертый сингл популярной американской певицы Бритни Спирс с альбома Femme Fatale. Релиз сингла был объявлен 29 августа, самой певицей, в интервью после церемонии VMA 2011. Песня была написана Максом Мартином, Шелбэком и Тиффани Амбер, а спродюсирована, как и ее предыдущий сингл, Максом Мартином и Шелбэком. «Criminal» — гитарная песня среднего темпа, включающая мелодию флейты стиля фолк. В песне говорится о девушке, которая влюблена в преступника. В основном, песня получила положительные отзывы критиков, которые отметили её натуральную и освежающую мелодию, по сравнению с остальными песнями на альбоме.
Вокал для песни был записан в студии «Maratone» в столице Швеции, Стокгольме. До релиза песня была зарегистрирована в BMI под названием «In Love With a Criminal». Второго марта, за месяц до выпуска альбома, Спирс выложила на своем профиле в Твиттер семнадцати-секундный отрывок, назвав песню одной из своей любимых. Пятого августа Спирс разместила на своей странице в фэйсбуке опрос, спрашивая фанатов, какую песню из «Criminal», «Inside Out» и «(Drop Dead) Beautiful» делать синглом. «Criminal» победил в голосовании с большим отрывом.
-Качество видео: HDCam
Формат видео: M2TS
Видео кодек: H.264
Аудио кодек: PCM
Видео: MPEG4 Video (H264) 1920x1080 23.98fps 18.3 Mbps
Аудио: PCM 48000Hz stereo 1536kbps-

Скриншоты

-

Mediainfo

Код: copyText_writeLink('this.parentNode.parentNode.nextSibling.nextSibling');
General
ID : 1 (0x1)
Complete name : D:\Торенты\Britney Spears - Criminal HDTV 1080i.m2ts
Format : BDAV
Format/Info : Blu-ray Video
File size : 805 MiB
Duration : 5mn 26s
Overall bit rate mode : Variable
Overall bit rate : 20.7 Mbps
Maximum Overall bit rate : 35.5 Mbps
Video
ID : 4113 (0x1011)
Menu ID : 1 (0x1)
Format : AVC
Format/Info : Advanced Video Codec
Format profile : [url=mailto:High@L4.1]High@L4.1[/url]
Format settings, CABAC : Yes
Format settings, ReFrames : 4 frames
Codec ID : 27
Duration : 5mn 26s
Bit rate mode : Variable
Bit rate : 18.3 Mbps
Maximum bit rate : 37.0 Mbps
Width : 1 920 pixels
Height : 1 080 pixels
Display aspect ratio : 16:9
Frame rate : 23.976 fps
Color space : YUV
Chroma subsampling : 4:2:0
Bit depth : 8 bits
Scan type : Progressive
Bits/(Pixel*Frame) : 0.368
Stream size : 713 MiB (89%)
Audio
ID : 4352 (0x1100)
Menu ID : 1 (0x1)
Format : PCM
Format settings, Endianness : Big
Format settings, Sign : Signed
Muxing mode : Blu-ray
Codec ID : 128
Duration : 5mn 26s
Bit rate mode : Constant
Bit rate : 1 536 Kbps
Channel(s) : 2 channels
Channel positions : Front: L R
Sampling rate : 48.0 KHz
Bit depth : 16 bits
Stream size : 59.8 MiB (7%)

_________________
Показать сообщения:    

Текущее время: Сегодня 14:13

Часовой пояс: GMT



Вы не можете начинать темы
Вы не можете отвечать на сообщения
Вы не можете редактировать свои сообщения
Вы не можете удалять свои сообщения
Вы не можете голосовать в опросах
Вы не можете прикреплять файлы к сообщениям
Вы не можете скачивать файлы
Наши партнеры: интернет магазин Ивановского трикотажа textilla.ru