Ивановский Торрент трекер
Яндекс.Погода
 

[Цитировать]
HUNTER

DJ Seduction / ‎Raving Mad
Жанр: Breakbeat, Hardcore, Happy Hardcore
Страна-производитель диска: UK
Год издания: 2004
Издатель (лейбл): Beats 24-7
Номер по каталогу: B247SCDH002
Аудиокодек: FLAC (*.flac)
Тип рипа: image+.cue
Битрейт аудио: lossless
Продолжительность: 1:13:08
Источник (релизер): Диск из личной коллекции
Наличие сканов в содержимом раздачи: да
Треклист:
01. House Crew, The – Keep The Fire Burning (2:32)
02. DJ Phantasy – Jepron (Carl Cox Remix) (3:51)
03. Inspiration Point – Cuckoo In The Jungle (4:28)
04. DJ Seduction – Can You Feel It (Remix) (4:05)
05. DJ's Unknown – Volume 3 (Feel Good) (3:18)
06. Vibena – Positive Energy (Brisk Remix) (3:06)
07. Dougal & Mickey Skeedale – Really Love You (Remix) (4:38)
08. Eruption – Drop The Beat (2:52)
09. Devotion & DJ Synergy – Take A Walk On The Wild Side (Billy Bunter Remix) (3:16)
10. Fade & Bananaman – Dream Surprise (Sy & Unknown Remix) (5:08)
11. DJ Demo – Sensation (4:22)
12. Happy Tunes – Nothing Is Forever (DJ Slam Remix) (4:53)
13. Eruption – Fantasy (4:53)
14. Vinylgroover – Voice Of Tommorow (4:10)
15. Ramos, Supreme & Sunset Regime – Knight Raver (Remix) (4:33)
16. Hixxy & Sunset Regime – Peoples Party (3:50)
17. DNA – Dance With Somebody (4:00)
18. Digital Manoeuvres – Universal Goes Bonkers (5:05)

Лог создания рипа

Exact Audio Copy V0.99 prebeta 4 from 23. January 2008
Отчёт EAC об извлечении, выполненном 23. февраля 2013, 0:40
Various / DJ Seduction - Raving Mad Vol. 2
Дисковод: Optiarc DVD RW AD-7261S Adapter: 1 ID: 1
Режим чтения : ДостоверностьИспользование точного потока : ДаОтключение кэша аудио : ДаИспользование указателей C2 : Нет
Коррекция смещения при чтении : 48Способность читать области Lead-in и Lead-out : НетЗаполнение пропущенных сэмплов тишиной : ДаУдаление блоков с тишиной в начале и конце : НетПри вычислениях CRC использовались нулевые сэмплы : ДаИнтерфейс : Встроенный Win32-интерфейс для Win NT/2000
Выходной формат : Внутренние WAV-операцииФормат сэмплов : 44.100 Гц; 16 бит; стерео
TOC извлечённого CD
Трек | Старт | Длительность | Начальный сектор | Конечный сектор --------------------------------------------------------------------- 1 | 0:00.00 | 2:32.19 | 0 | 11418 2 | 2:32.19 | 3:51.12 | 11419 | 28755 3 | 6:23.31 | 4:28.27 | 28756 | 48882 4 | 10:51.58 | 4:05.13 | 48883 | 67270 5 | 14:56.71 | 3:18.58 | 67271 | 82178 6 | 18:15.54 | 3:06.15 | 82179 | 96143 7 | 21:21.69 | 4:38.72 | 96144 | 117065 8 | 26:00.66 | 2:52.32 | 117066 | 129997 9 | 28:53.23 | 3:16.33 | 129998 | 144730 10 | 32:09.56 | 5:08.22 | 144731 | 167852 11 | 37:18.03 | 4:22.36 | 167853 | 187538 12 | 41:40.39 | 4:53.57 | 187539 | 209570 13 | 46:34.21 | 4:53.70 | 209571 | 231615 14 | 51:28.16 | 4:10.39 | 231616 | 250404 15 | 55:38.55 | 4:33.36 | 250405 | 270915 16 | 60:12.16 | 3:50.32 | 270916 | 288197 17 | 64:02.48 | 4:00.61 | 288198 | 306258 18 | 68:03.34 | 5:05.02 | 306259 | 329135
Характеристики диапазона извлечения и сообщения об ошибках
Выбранный диапазон
Имя файла C:\Users\Meijin\Desktop\Новая папка (4)\Various - DJ Seduction - Raving Mad Vol. 2.wav
Пиковый уровень 99.1 % Качество диапазона 100.0 % CRC теста 4AC81606 CRC копии 4AC81606 Копирование... OK
Ошибок не произошло
AccurateRip: сводка
Трек 1 точное извлечение (доверие 2) [F78F3652]Трек 2 точное извлечение (доверие 2) [F21CB7DC]Трек 3 точное извлечение (доверие 2) [28F5E48A]Трек 4 точное извлечение (доверие 2) [314921D2]Трек 5 точное извлечение (доверие 2) [12AE494E]Трек 6 точное извлечение (доверие 2) [1FE6CC9D]Трек 7 точное извлечение (доверие 2) [CDAA27BF]Трек 8 точное извлечение (доверие 2) [26E16645]Трек 9 точное извлечение (доверие 2) [CADAC766]Трек 10 точное извлечение (доверие 2) [60195032]Трек 11 точное извлечение (доверие 2) [7A12C7FC]Трек 12 точное извлечение (доверие 2) [E75BE43B]Трек 13 точное извлечение (доверие 2) [BD3C38EE]Трек 14 точное извлечение (доверие 2) [8D7D6CF3]Трек 15 точное извлечение (доверие 2) [4ABE1392]Трек 16 точное извлечение (доверие 2) [4BB67866]Трек 17 точное извлечение (доверие 2) [BBFD999E]Трек 18 точное извлечение (доверие 2) [2E1791AB]
Все треки извлечены точно
Конец отчёта


Показать сообщения:    

Текущее время: 16-Дек 09:32

Часовой пояс: UTC ± 0


Вы не можете начинать темы
Вы не можете отвечать на сообщения
Вы не можете редактировать свои сообщения
Вы не можете удалять свои сообщения
Вы не можете голосовать в опросах
Вы не можете прикреплять файлы к сообщениям
Вы не можете скачивать файлы

!ВНИМАНИЕ!
Сайт не предоставляет электронные версии произведений, а занимается лишь коллекционированием и каталогизацией ссылок, присылаемых и публикуемых на форуме нашими читателями. Если вы являетесь правообладателем какого-либо представленного материала и не желаете, чтобы ссылка на него находилась в нашем каталоге, свяжитесь с нами, и мы незамедлительно удалим ее. Файлы для обмена на трекере предоставлены пользователями сайта, и администрация не несет ответственности за их содержание. Просьба не заливать файлы, защищенные авторскими правами, а также файлы нелегального содержания!