Ивановский Торрент трекер
Яндекс.Погода
DL-List and Torrent activity
None
 
     
 
 

[Quote]
Shalun

Боги арены / Kingdom of Gladiators-«The duel they never expected is about to begin.»- Год выпуска: 2011
Страна: США Италия
Жанр: Фэнтези, Боевик, Приключения
Продолжительность: 01:21:25
Перевод: Профессиональный (многоголосый закадровый) [Лицензия!]
Субтитры: нет-Режиссер:
  • Стефано Милла / Stefano Milla
В ролях:
  • Маурицио Корильяно, Шарон Фрайер, Сюзи Лоррейн, Брайан Мерфи, Мэтт Полински, Энни Сошиал и др.
-Описание: Они выходят на арену, где смерть — лучшее развлечение для толпы. Они должны бороться за выживание и усвоить жестокие правила мира гладиаторов. Рожденные войной, они не ведают страха, не знают любви, не чувствуют слабости и не испытывают жалости. Они вступают в схватку, чтобы победить или умереть.-Качество: DVDRip
Формат: AVI
Видео кодек: XviD
Аудио кодек: AC3
Видео: 720x400 (16:9), 25 fps, XviD build 50 ~1998 kbps avg, 0.278 bit/pixel
Аудио: 48 kHz, AC3 Dolby Digital, 3/2 (L,C,R,l,r) + LFE ch, ~384.00 kbps avg-Релиз от
- - -

Отчёт Mediainfo

Complete name : Bogi.areny.2011.XviD.DVDRip.IRONCLUB.avi
Format : AVI
Format/Info : Audio Video Interleave
File size : 1.36 GiB
Duration : 1h 21mn
Overall bit rate : 2 392 Kbps
Movie name : Kingdom.Of.Gladiators.2011.DVDRip.IRONCLUB
Director : -=IRONCLUB=-
Writing application : VirtualDubMod 1.5.10.2 (build 2540/release)
Original source form/Name : Movie
Video
ID : 0
Format : MPEG-4 Visual
Format profile : Advanced Simple@L5
Format settings, BVOP : No
Format settings, QPel : No
Format settings, GMC : No warppoints
Format settings, Matrix : Custom
Codec ID : XVID
Codec ID/Hint : XviD
Duration : 1h 21mn
Bit rate : 1 998 Kbps
Width : 720 pixels
Height : 400 pixels
Display aspect ratio : 16:9
Frame rate : 25.000 fps
Color space : YUV
Chroma subsampling : 4:2:0
Bit depth : 8 bits
Scan type : Progressive
Compression mode : Lossy
Bits/(Pixel*Frame) : 0.278
Stream size : 1.14 GiB (84%)
Writing library : XviD 1.2.1 (UTC 2008-12-04)
Audio
ID : 1
Format : AC-3
Format/Info : Audio Coding 3
Mode extension : CM (complete main)
Codec ID : 2000
Duration : 1h 21mn
Bit rate mode : Constant
Bit rate : 384 Kbps
Channel(s) : 6 channels
Channel positions : Front: L C R, Side: L R, LFE
Sampling rate : 48.0 KHz
Bit depth : 16 bits
Compression mode : Lossy
Stream size : 224 MiB (16%)
Alignment : Split accross interleaves
Interleave, duration : 40 ms (1.00 video frame)
Interleave, preload duration : 500 ms

Скриншоты



Display posts:    

Current time is: 16-Jun 23:22

All times are UTC ± 0


You cannot post new topics in this forum
You cannot reply to topics in this forum
You cannot edit your posts in this forum
You cannot delete your posts in this forum
You cannot vote in polls in this forum
You cannot attach files in this forum
You cannot download files in this forum

!ATTENTION!
The site does not give electronic versions of products, and is engaged only in a collecting and cataloguing of the references sent and published at a forum by our readers. If you are the legal owner of any submitted material and do not wish that the reference to it was in our catalogue, contact us and we shall immediately remove her. Files for an exchange on tracker are given by users of a site, and the administration does not bear the responsibility for their maintenance. The request to not fill in the files protected by copyrights, and also files of the illegal maintenance!