Boин / Wаrriоr (Гэвин О’Коннор / Gavin O'Connor) [2011, США, боевик, драма, спорт, BDRip 720p] MVO (R5) + AVO (Сербин) + Original (Eng) + Subs (Rus, Eng) :: Ивановский Торрент трекер
Важное объявление!
У Нас Все раздачи мультитрекерные, при нуле пиров в релизах, можете смело вставать на закачку!
Статистика раздачи
Размер:     |    Зарегистрирован:     |    Скачан:     |   
Нет
 
     
 
 
Автор Сообщение

HUNTER

Стаж:
4 года 11 месяцев
Сообщений:
66098

Репутация: 101

[+] [-]
Вне форума [Профиль] [ЛС]

Воин / Warrior

-
-Страна: США
Студия: CBS Films, Gidden Media, Good Universe, Outlaw Sinema
Жанр: боевик, драма, спорт
Год выпуска: 2011
Продолжительность: 02:19:54--Перевод 1: Профессиональный (многоголосый закадровый) R5
Перевод 2: Авторский (одноголосый закадровый) Ю. Сербин
Cубтитры: русские (R5, по переводу Ю. Сербина от Silver), английские (full, SDH)
Оригинальная аудиодорожка: английский--Режиссер: Гэвин О’Коннор / Gavin O'Connor
В ролях: Джоэл Эдгертон, Том Харди, Ник Нолти, Дженнифер Моррисон, Фрэнк Грилло, Кевин Данн, Максимилианно Эрнандез.--Описание: Томми Конлон — молодой боец, вернувшийся домой после долгого отсутствия, чтобы приготовиться к участию в большом турнире. Отец-пьяница, в прошлом талантливый боксер, берется тренировать сына.--imdb | kinopoisk | Сэмпл--Тип релиза: BDRip 720p [Warrior 2011 Hybrid 720p BluRay DD5.1 x264-EbP]
Контейнер: MKV
Видео: MPEG-4 AVC / 10,8 Mbps / 1280x534 / 23,976 fps / 2,40:1 / High Profile 4.1
Аудио 1: Russian AC3 / 5.1 / 48 kHz / 640 kbps / 16 bits |MVO, R5|
Аудио 2: Russian AC3 / 5.1 / 48 kHz / 640 kbps / 16 bits |Ю. Сербин|
Аудио 3: English AC3 / 5.1 / 48 kHz / 640 kbps / 16 bits |original|
Аудио 4: English AC3 / 2.0 / 48 kHz / 224 kbps / 16 bits |Commentary with Gavin O'Connor, Anthony Tambakis, Joel Edgerton|
Формат субтитров: softsub [SRT]

MediaInfo
Код:
Общее
Уникальный идентификатор                 : 229536245745966639714073350419876361848 (0xACAF12A99A66FA54A1ACFB24F5233678)
Полное имя                               : G:\HD\Войн.2011.BDRip.(720p).mkv
Формат                                   : Matroska
Версия формата                           : Version 4 / Version 2
Размер файла                             : 12,9 Гбайт
Продолжительность                        : 2 ч. 19 м.
Общий поток                              : 13,2 Мбит/сек
Дата кодирования                         : UTC 2014-05-04 17:44:37
Программа кодирования                    : mkvmerge v6.9.1 ('Blue Panther') 64bit built on Apr 18 2014 18:23:38
Библиотека кодирования                   : libebml v1.3.0 + libmatroska v1.4.1
Attachment                               : Yes
Видео
Идентификатор                            : 1
Формат                                   : AVC
Формат/Информация                        : Advanced Video Codec
Профиль формата                          : High@L4.1
Параметр CABAC формата                   : Да
Параметр ReFrames формата                : 10 кадров
Идентификатор кодека                     : V_MPEG4/ISO/AVC
Продолжительность                        : 2 ч. 19 м.
Битрейт                                  : 10,8 Мбит/сек
Ширина                                   : 1280 пикселей
Высота                                   : 534 пикселя
Соотношение сторон                       : 2,40:1
Режим частоты кадров                     : Постоянный
Частота кадров                           : 23,976 кадра/сек
Цветовое пространство                    : YUV
Субдискретизация насыщенности            : 4:2:0
Битовая глубина                          : 8 бит
Тип развёртки                            : Прогрессивная
Бит/(Пиксели*Кадры)                      : 0.661
Размер потока                            : 10,6 Гбайт (82%)
Заголовок                                : Warrior 2011 Hybrid 720p BluRay DD5.1 x264-EbP
Библиотека кодирования                   : x264 core 140 r2377 1ca7bb9
Настройки программы                      : cabac=1 / ref=10 / deblock=1:-3:-3 / analyse=0x3:0x113 / me=tesa / subme=10 / psy=1 / psy_rd=1.17:0.00 / mixed_ref=1 / me_range=16 / chroma_me=1 / trellis=2 / 8x8dct=1 / cqm=0 / deadzone=21,11 / fast_pskip=0 / chroma_qp_offset=-2 / threads=12 / lookahead_threads=3 / sliced_threads=0 / nr=0 / decimate=0 / interlaced=0 / bluray_compat=0 / constrained_intra=0 / bframes=10 / b_pyramid=2 / b_adapt=2 / b_bias=0 / direct=3 / weightb=1 / open_gop=0 / weightp=2 / keyint=250 / keyint_min=23 / scenecut=40 / intra_refresh=0 / rc=crf / mbtree=0 / crf=18.2 / qcomp=0.70 / qpmin=0 / qpmax=69 / qpstep=4 / ip_ratio=1.20 / pb_ratio=1.20 / aq=1:0.70 / zones=33974,38230,crf=15/49764,53927,crf=15/84103,87383,crf=15/95088,97814,crf=15/116712,124254,crf=15/154484,161422,crf=15/189242,201259,crf=30
Язык                                     : English
Default                                  : Да
Forced                                   : Нет
Аудио #1
Идентификатор                            : 2
Формат                                   : AC-3
Формат/Информация                        : Audio Coding 3
Расширение режима                        : CM (complete main)
Параметр Endianness формата              : Big
Идентификатор кодека                     : A_AC3
Продолжительность                        : 2 ч. 19 м.
Вид битрейта                             : Постоянный
Битрейт                                  : 640 Кбит/сек
Каналы                                   : 6 каналов
Расположение каналов                     : Front: L C R, Side: L R, LFE
Частота                                  : 48,0 КГц
Битовая глубина                          : 16 бит
Метод сжатия                             : С потерями
Размер потока                            : 640 Мбайт (5%)
Заголовок                                : MVO, R5
Язык                                     : Russian
Default                                  : Да
Forced                                   : Нет
Аудио #2
Идентификатор                            : 3
Формат                                   : AC-3
Формат/Информация                        : Audio Coding 3
Расширение режима                        : CM (complete main)
Параметр Endianness формата              : Big
Идентификатор кодека                     : A_AC3
Продолжительность                        : 2 ч. 19 м.
Вид битрейта                             : Постоянный
Битрейт                                  : 640 Кбит/сек
Каналы                                   : 6 каналов
Расположение каналов                     : Front: L C R, Side: L R, LFE
Частота                                  : 48,0 КГц
Битовая глубина                          : 16 бит
Метод сжатия                             : С потерями
Размер потока                            : 640 Мбайт (5%)
Заголовок                                : Ю. Сербин
Язык                                     : Russian
Default                                  : Нет
Forced                                   : Нет
Аудио #3
Идентификатор                            : 4
Формат                                   : AC-3
Формат/Информация                        : Audio Coding 3
Расширение режима                        : CM (complete main)
Параметр Endianness формата              : Big
Идентификатор кодека                     : A_AC3
Продолжительность                        : 2 ч. 19 м.
Вид битрейта                             : Постоянный
Битрейт                                  : 640 Кбит/сек
Каналы                                   : 6 каналов
Расположение каналов                     : Front: L C R, Side: L R, LFE
Частота                                  : 48,0 КГц
Битовая глубина                          : 16 бит
Метод сжатия                             : С потерями
Размер потока                            : 640 Мбайт (5%)
Язык                                     : English
Default                                  : Нет
Forced                                   : Нет
Аудио #4
Идентификатор                            : 5
Формат                                   : AC-3
Формат/Информация                        : Audio Coding 3
Расширение режима                        : CM (complete main)
Параметр Endianness формата              : Big
Идентификатор кодека                     : A_AC3
Продолжительность                        : 2 ч. 19 м.
Вид битрейта                             : Постоянный
Битрейт                                  : 224 Кбит/сек
Каналы                                   : 2 канала
Расположение каналов                     : Front: L R
Частота                                  : 48,0 КГц
Битовая глубина                          : 16 бит
Метод сжатия                             : С потерями
Размер потока                            : 224 Мбайт (2%)
Заголовок                                : Commentary with Gavin O'Connor, Anthony Tambakis, Joel Edgerton
Язык                                     : English
Default                                  : Нет
Forced                                   : Нет
Текст #1
Идентификатор                            : 6
Формат                                   : UTF-8
Идентификатор кодека                     : S_TEXT/UTF8
Идентификатор кодека/Информация          : UTF-8 Plain Text
Заголовок                                : R5
Язык                                     : Russian
Default                                  : Нет
Forced                                   : Нет
Текст #2
Идентификатор                            : 7
Формат                                   : UTF-8
Идентификатор кодека                     : S_TEXT/UTF8
Идентификатор кодека/Информация          : UTF-8 Plain Text
Заголовок                                : по переводу Ю.Сербина от Silver
Язык                                     : Russian
Default                                  : Нет
Forced                                   : Нет
Текст #3
Идентификатор                            : 8
Формат                                   : UTF-8
Идентификатор кодека                     : S_TEXT/UTF8
Идентификатор кодека/Информация          : UTF-8 Plain Text
Заголовок                                : full
Язык                                     : English
Default                                  : Нет
Forced                                   : Нет
Текст #4
Идентификатор                            : 9
Формат                                   : UTF-8
Идентификатор кодека                     : S_TEXT/UTF8
Идентификатор кодека/Информация          : UTF-8 Plain Text
Заголовок                                : SDH
Язык                                     : English
Default                                  : Нет
Forced                                   : Нет
Меню
00:00:00.000                             : en:00:00:00.000
00:10:32.840                             : en:00:10:32.840
00:16:46.714                             : en:00:16:46.714
00:26:34.551                             : en:00:26:34.551
00:39:08.971                             : en:00:39:08.971
00:45:49.622                             : en:00:45:49.622
00:51:28.919                             : en:00:51:28.919
00:58:27.796                             : en:00:58:27.796
01:06:02.458                             : en:01:06:02.458
01:14:27.254                             : en:01:14:27.254
01:22:32.906                             : en:01:22:32.906
01:30:35.638                             : en:01:30:35.638
01:40:46.040                             : en:01:40:46.040
01:52:55.977                             : en:01:52:55.977
02:00:21.089                             : en:02:00:21.089
02:06:50.394                             : en:02:06:50.394
СкриншотыДополнительно
Цитата:
Цитата:

За русские дорожки спасибо - hdclub
Цитата:
Цитата:

Дорожка №1 получена наложением выделенных голосов на центр декодированного DTS-HD MA.
Дорожка №2 получена наложением чистого голоса на центр декодированного DTS-HD MA.
Цитата:
Цитата:

Перевод Ю.Сербина осуществлен в рамках сервиса - "Озвучивание". Спонсоры: sergey_n, murtuz90, mihaildns, Scaramouche, Кириллка, tft, radical, timyrovec, АСАВ, elena 311, Alex15_90, Gercules, Slimka, safreks, Loki1982, Dervish, benjjjamin.
Warrior 2011 Hybrid 720p BluRay DD5.1 x264-EbP
Код:
RELEASE NAME..: Warrior.2011.Hybrid.720p.BluRay.DD5.1.x264-EbP
RELEASE DATE..: 11/23/2013
RELEASE SIZE..: 11.5 GB
RUNTIME.......: 2:19:54
VIDEO CODEC...: x264, CRF, L4.1
FRAMERATE.....: 23.976 fps
BITRATE.......: 10.9 Mbps
RESOLUTION....: 1280x534
AUDIO 1.......: English DD5.1 @ 640 kb/s (sfse)
AUDIO 2.......: English AAC2.0 @ (q=0.25)
                Commentary with Filmmakers and Actor Joel Edgerton
SUBTITLES.....: English .srt
SOURCE 1......: Warrior.2011.AUS.BluRay.Remux.1080p.AVC.DTS-HD.MA.5.1-HiFi (main video)
SOURCE 1......: Warrior 2011 1080p CAN Blu-ray AVC DTS-HD MA 7.1-EbP (overlay, audio, subs)
NOTES.........: The Australian source is considerably better in terms of PQ and grain retention.
                The North American source was used to remove dirty lines on top and bottom using
                overlay.  Some scenes required filtering to remove banding.
                Trimmed to the US blu-ray so existing subs/dubs should sync without any delay.
EbP Source | EbP | DON | DON Source (HDChina)



_________________
Показать сообщения:    

Текущее время: Сегодня 12:37

Часовой пояс: GMT



Вы не можете начинать темы
Вы не можете отвечать на сообщения
Вы не можете редактировать свои сообщения
Вы не можете удалять свои сообщения
Вы не можете голосовать в опросах
Вы не можете прикреплять файлы к сообщениям
Вы не можете скачивать файлы