Ивановский Торрент трекер
Яндекс.Погода
Статистика раздачи
Размер:  3.88 GB   |    Зарегистрирован:  5 месяцев 13 дней   |    Скачан:  0 раз
Сидов:  1  [  0 KB/s  ]   Подробная статистика пиров
 
     
 
 
 

[Цитировать]
HUNTER

Биби - маленькая волшебница и тайна ночных птиц / Bibi Blocksberg und das Geheimnis der blauen Eulen

Страна: Германия
Жанр: фэнтези, приключения, семейный
Год выпуска: 2004
Продолжительность: 01:49:24
Перевод: Профессиональный (многоголосый закадровый)
Субтитры: нет
Оригинальная аудиодорожка: немецкий
Режиссер: Франциска Бух / Franziska Buch
В ролях: Сидони фон Кросигк, Мари-Луиза Стал, Коринна Харфух, Катя Риман, Ульрих Нётен, Моника Бляйбтрой, Эдгар Зельге, Нина Петри, Аня Соммавилла, Элеа Гайслер
Описание: Биби слишком увлеклась волшебством и совсем забыла про учебу. В наказание она проведет лето в интернате в замке Альтенберг. Директор лагеря - человек со странностями, а соседка Биби по комнате - клон Бритни Спирс - совершенно невыносима. Зато Биби подружилась с Элеа, девочкой, прикованной к инвалидной коляске.
Разумеется, Биби пытается поставить подружку на ноги, хотя ведьмовской кодекс категорически запрещает вмешательство в личную жизнь людей. Таинственные синие совы, прячущиеся в пещерах Альтенберга, могут помочь вылечить Элеа. Но, к несчастью, в эту тайну посвящена одна очень неприятная особа - старая соперница Биби, злая ведьма Рабиа...

Доп. информация: За видео большая благодарность Justin15.
Сэмпл: https://yadi.sk/i/HSxQXAA_3RX5cv
Тип релиза: HDTVRip-AVC
Контейнер: MKV
Видео: AVC, 1280x720, 16:9, 4500 kbps, 25.000 fps
Аудио 1: RUS, AC3, 5.1, 48 kHz, 384 kbps
Аудио 2: GER, AC3, 2.0, 48 kHz, 192 kbps

MediaInfo

General
Unique ID : 209018161712481842041312717614826099302 (0x9D3F6F04192686AF8FFC658E94FB9266)
Complete name : Биби - маленькая волшебница и тайна ночных птиц [2004] 720p.mkv
Format : Matroska
Format version : Version 4 / Version 2
File size : 3.88 GiB
Duration : 1 h 49 min
Overall bit rate : 5 078 kb/s
Encoded date : UTC 2018-01-16 14:37:19
Writing application : mkvmerge v7.0.0 ('Where We Going') 64bit built on Jun 9 2014 15:16:27
Writing library : libebml v1.3.0 + libmatroska v1.4.1
Video
ID : 1
Format : AVC
Format/Info : Advanced Video Codec
Format profile : High@L4.1
Format settings : CABAC / 9 Ref Frames
Format settings, CABAC : Yes
Format settings, ReFrames : 9 frames
Codec ID : V_MPEG4/ISO/AVC
Duration : 1 h 49 min
Bit rate : 4 500 kb/s
Width : 1 280 pixels
Height : 720 pixels
Display aspect ratio : 16:9
Frame rate mode : Constant
Frame rate : 25.000 FPS
Color space : YUV
Chroma subsampling : 4:2:0
Bit depth : 8 bits
Scan type : Progressive
Bits/(Pixel*Frame) : 0.195
Stream size : 3.44 GiB (89%)
Writing library : x264 core 152 r2851bm ba24899
Encoding settings : cabac=1 / ref=9 / deblock=1:-1:-1 / analyse=0x3:0x133 / me=umh / subme=10 / psy=1 / psy_rd=1.00:0.15 / mixed_ref=1 / me_range=24 / chroma_me=1 / trellis=2 / 8x8dct=1 / cqm=0 / deadzone=21,11 / fast_pskip=1 / chroma_qp_offset=-3 / threads=12 / lookahead_threads=2 / sliced_threads=0 / nr=0 / decimate=1 / interlaced=0 / bluray_compat=0 / constrained_intra=0 / bframes=8 / b_pyramid=2 / b_adapt=2 / b_bias=0 / direct=3 / weightb=1 / open_gop=0 / weightp=2 / keyint=250 / keyint_min=25 / scenecut=40 / intra_refresh=0 / rc_lookahead=60 / rc=2pass / mbtree=1 / bitrate=4500 / ratetol=1.0 / qcomp=0.60 / qpmin=0 / qpmax=69 / qpstep=4 / cplxblur=20.0 / qblur=0.5 / ip_ratio=1.40 / aq=1:1.00
Language : German
Default : Yes
Forced : No
Audio #1
ID : 2
Format : AC-3
Format/Info : Audio Coding 3
Codec ID : A_AC3
Duration : 1 h 49 min
Bit rate mode : Constant
Bit rate : 384 kb/s
Channel(s) : 6 channels
Channel positions : Front: L C R, Side: L R, LFE
Sampling rate : 48.0 kHz
Frame rate : 31.250 FPS (1536 SPF)
Bit depth : 16 bits
Compression mode : Lossy
Stream size : 300 MiB (8%)
Title : MVO
Language : Russian
Service kind : Complete Main
Default : Yes
Forced : No
Audio #2
ID : 3
Format : AC-3
Format/Info : Audio Coding 3
Codec ID : A_AC3
Duration : 1 h 49 min
Bit rate mode : Constant
Bit rate : 192 kb/s
Channel(s) : 2 channels
Channel positions : Front: L R
Sampling rate : 48.0 kHz
Frame rate : 31.250 FPS (1536 SPF)
Bit depth : 16 bits
Compression mode : Lossy
Stream size : 150 MiB (4%)
Title : GER
Language : German
Service kind : Complete Main
Default : No
Forced : No
[iv-torrents.ru].t82608.torrent
Торрент: Зарегистрирован [ 2018-08-05 17:06 ] · C9B5B093026C806B957BDF245E8834DEA0446C91

Скачать .torrent

Скачать

20 KB

Статус: проверено
Скачан: 0 раз
Размер: 3.88 GB
terms.php


Показать сообщения:    

Текущее время: 19-Янв 10:03

Часовой пояс: UTC ± 0


Вы не можете начинать темы
Вы не можете отвечать на сообщения
Вы не можете редактировать свои сообщения
Вы не можете удалять свои сообщения
Вы не можете голосовать в опросах
Вы не можете прикреплять файлы к сообщениям
Вы можете скачивать файлы

!ВНИМАНИЕ!
Сайт не предоставляет электронные версии произведений, а занимается лишь коллекционированием и каталогизацией ссылок, присылаемых и публикуемых на форуме нашими читателями. Если вы являетесь правообладателем какого-либо представленного материала и не желаете, чтобы ссылка на него находилась в нашем каталоге, свяжитесь с нами, и мы незамедлительно удалим ее. Файлы для обмена на трекере предоставлены пользователями сайта, и администрация не несет ответственности за их содержание. Просьба не заливать файлы, защищенные авторскими правами, а также файлы нелегального содержания!