Ивановский Торрент трекер
Яндекс.Погода
 

[Quote]
HUNTER

Безумный город / Mad city
Страна: США
Жанр: триллер, драма, криминал
Год выпуска: 1997
Продолжительность: 01:50:01
Перевод 1: Профессиональный (дублированный) Мост Видео
Перевод 2: Профессиональный (многоголосый закадровый) Варус Видео
Субтитры: русские, английские
Оригинальная аудиодорожка: английский
Режиссер: Коста-Гаврас / Costa-Gavras
В ролях: Джон Траволта, Дастин Хоффман, Миа Киршнер, Алан Алда, Роберт Проски, Блайт Даннер, Уильям Этертон, Тед Левайн, Тэмми Лорен, Уильям О’Лири…
Описание: Блестящий журналист Макс Брэкетт после учиненного в эфире скандала вылетел с престижного телеканала. Вернуть его может только сенсация всеамериканского масштаба.
Судьба предоставила Максу последний шанс: охранник Сэм Бейли, потеряв работу, решил восстановить справедливость с оружием в руках — взять в заложники бывшее начальство. Циничный репортер не ожидал от себя, что станет истинным другом отчаявшемуся неудачнику…
Сэмпл: https://yadi.sk/i/Moo-8qEN3ZPDpg

Источник Спасибо, sovsem-neduhoven
Тип релиза: BDRip 720p
Контейнер: MKV
Видео: AVC / 1280x544 / 25 fps / 8575 Kbps / [email protected]
Аудио 1: Rus AC3 5.1 / 48 kHz / 384 kbps / 16-bit
Аудио 2: Rus AC3 2.0 / 48 kHz / 192 kbps / 16-bit
Аудио 3: Eng AC3 5.1 / 48 kHz / 640 kbps / 16-bit
Формат субтитров: softsub (SRT)

MediaInfo

Общее
Уникальный идентификатор : 276001459498723350121350411354331059297 (0xCFA3F292EB73A3AE64647D996C2E9461)
Полное имя : S:\rutracker\Mad.City.1997.BDRip.720p.2xRus.Eng.mkv
Формат : Matroska
Версия формата : Version 4 / Version 2
Размер файла : 7,53 Гбайт
Продолжительность : 1 ч. 50 м.
Общий поток : 9793 Кбит/сек
Название фильма : Mad city (1997)
Дата кодирования : UTC 2018-02-10 08:08:58
Программа кодирования : mkvmerge v20.0.0 ('I Am The Sun') 64-bit
Библиотека кодирования : libebml v1.3.5 + libmatroska v1.4.8
Видео
Идентификатор : 1
Формат : AVC
Формат/Информация : Advanced Video Codec
Профиль формата : [email protected]
Настройки формата : CABAC / 8 Ref Frames
Параметр CABAC формата : Да
Параметр RefFrames формата : 8 кадров
Идентификатор кодека : V_MPEG4/ISO/AVC
Продолжительность : 1 ч. 50 м.
Битрейт : 8575 Кбит/сек
Ширина : 1280 пикселей
Высота : 544 пикселя
Соотношение сторон : 2,35:1
Режим частоты кадров : Постоянный
Частота кадров : 25,000 кадров/сек
Цветовое пространство : YUV
Субдискретизация насыщенности : 4:2:0
Битовая глубина : 8 бит
Тип развёртки : Прогрессивная
Бит/(Пиксели*Кадры) : 0.493
Размер потока : 6,59 Гбайт (88%)
Библиотека кодирования : x264 core 152 r2851 ba24899
Настройки программы : cabac=1 / ref=8 / deblock=1:-3:-3 / analyse=0x3:0x133 / me=umh / subme=11 / psy=1 / psy_rd=1.00:0.15 / mixed_ref=1 / me_range=24 / chroma_me=1 / trellis=2 / 8x8dct=1 / cqm=0 / deadzone=21,11 / fast_pskip=0 / chroma_qp_offset=-3 / threads=8 / lookahead_threads=2 / sliced_threads=0 / nr=0 / decimate=1 / interlaced=0 / bluray_compat=0 / constrained_intra=0 / bframes=10 / b_pyramid=2 / b_adapt=2 / b_bias=0 / direct=1 / weightb=1 / open_gop=0 / weightp=2 / keyint=250 / keyint_min=25 / scenecut=40 / intra_refresh=0 / rc_lookahead=40 / rc=crf / mbtree=0 / crf=16.2 / qcomp=0.60 / qpmin=0 / qpmax=69 / qpstep=4 / vbv_maxrate=50000 / vbv_bufsize=62500 / crf_max=0.0 / nal_hrd=none / filler=0 / ip_ratio=1.40 / pb_ratio=1.30 / aq=2:0.80
Язык : English
Default : Да
Forced : Нет
Аудио #1
Идентификатор : 2
Формат : AC-3
Формат/Информация : Audio Coding 3
Идентификатор кодека : A_AC3
Продолжительность : 1 ч. 50 м.
Вид битрейта : Постоянный
Битрейт : 384 Кбит/сек
Каналы : 6 каналов
Расположение каналов : Front: L C R, Side: L R, LFE
Частота : 48,0 КГц
Частота кадров : 31,250 кадров/сек (1536 SPF)
Битовая глубина : 16 бит
Метод сжатия : С потерями
Размер потока : 302 Мбайт (4%)
Заголовок : Dub
Язык : Russian
ServiceKind/String : Complete Main
Default : Да
Forced : Нет
Аудио #2
Идентификатор : 3
Формат : AC-3
Формат/Информация : Audio Coding 3
Идентификатор кодека : A_AC3
Продолжительность : 1 ч. 50 м.
Вид битрейта : Постоянный
Битрейт : 192 Кбит/сек
Каналы : 2 канала
Расположение каналов : Front: L R
Частота : 48,0 КГц
Частота кадров : 31,250 кадров/сек (1536 SPF)
Битовая глубина : 16 бит
Метод сжатия : С потерями
Размер потока : 151 Мбайт (2%)
Заголовок : MVO
Язык : Russian
ServiceKind/String : Complete Main
Default : Нет
Forced : Нет
Аудио #3
Идентификатор : 4
Формат : AC-3
Формат/Информация : Audio Coding 3
Идентификатор кодека : A_AC3
Продолжительность : 1 ч. 50 м.
Вид битрейта : Постоянный
Битрейт : 640 Кбит/сек
Каналы : 6 каналов
Расположение каналов : Front: L C R, Side: L R, LFE
Частота : 48,0 КГц
Частота кадров : 31,250 кадров/сек (1536 SPF)
Битовая глубина : 16 бит
Метод сжатия : С потерями
Размер потока : 504 Мбайт (7%)
Язык : English
ServiceKind/String : Complete Main
Default : Нет
Forced : Нет
Текст #1
Идентификатор : 5
Формат : UTF-8
Идентификатор кодека : S_TEXT/UTF8
Идентификатор кодека/Информация : UTF-8 Plain Text
Продолжительность : 1 ч. 49 м.
Битрейт : 123 бит/сек
ElementCount : 1896
Размер потока : 99,3 Кбайт (0%)
Язык : Russian
Default : Нет
Forced : Нет
Текст #2
Идентификатор : 6
Формат : UTF-8
Идентификатор кодека : S_TEXT/UTF8
Идентификатор кодека/Информация : UTF-8 Plain Text
Продолжительность : 1 ч. 47 м.
Битрейт : 82 бит/сек
ElementCount : 1884
Размер потока : 65,4 Кбайт (0%)
Язык : English
Default : Нет
Forced : Нет
Меню
00:00:00.000 : en:Chapter 1
00:10:36.000 : en:Chapter 2
00:15:03.920 : en:Chapter 3
00:20:28.400 : en:Chapter 4
00:30:41.640 : en:Chapter 5
00:38:24.720 : en:Chapter 6
00:48:00.920 : en:Chapter 7
00:55:39.480 : en:Chapter 8
01:09:04.200 : en:Chapter 9
01:22:17.160 : en:Chapter 10
01:28:19.480 : en:Chapter 11
01:40:57.760 : en:Chapter 12

x264, md5

x264:
---[Information] [09.02.2018 18:40:12] x264 [info]: frame I:1194 Avg QP:16.27 size:114241
---[Information] [09.02.2018 18:40:12] x264 [info]: frame P:30371 Avg QP:17.53 size: 68674
---[Information] [09.02.2018 18:40:12] x264 [info]: frame B:133458 Avg QP:19.79 size: 36362
---[Information] [09.02.2018 18:40:12] x264 [info]: consecutive B-frames: 1.3% 1.3% 4.4% 13.7% 12.3% 38.7% 9.0% 4.7% 7.5% 3.1% 4.0%
BDRip: file hash md5: 765D2914651A5738380ADCFB4780700A
Sample: file hash md5: 443E152A6097BCB515759839587402EB

Скриншоты

BDRip: Original (Crop+Resize): Original:
[box]

[/box][box]

[/box]

[box]

[/box][box]

[/box]

[box]

[/box][box]

[/box]

[box]

[/box][box]

[/box]

[box]

[/box][box]

[/box]

[box]

[/box][box]

[/box]


Display posts:    

Current time is: 07-Jul 06:46

All times are UTC ± 0


You cannot post new topics in this forum
You cannot reply to topics in this forum
You cannot edit your posts in this forum
You cannot delete your posts in this forum
You cannot vote in polls in this forum
You cannot attach files in this forum
You cannot download files in this forum

!ATTENTION!
The site does not give electronic versions of products, and is engaged only in a collecting and cataloguing of the references sent and published at a forum by our readers. If you are the legal owner of any submitted material and do not wish that the reference to it was in our catalogue, contact us and we shall immediately remove her. Files for an exchange on tracker are given by users of a site, and the administration does not bear the responsibility for their maintenance. The request to not fill in the files protected by copyrights, and also files of the illegal maintenance!