Ивановский Торрент трекер
Яндекс.Погода
DL-List and Torrent activity
Size:  25.36 GB   |    Registered:  1 year 3 months   |    Completed:  2 times
DL-List: None

Seeder not seen: Never

 
     
 
 
 

[Quote]
HUNTER

Безумный город / Mad city
Страна: США
Студия: Warner Brothers Pictures
Жанр: драма, триллер
Год выпуска: 1997
Продолжительность: 01:50:01
Перевод: Профессиональный (дублированный) - Мост Видео
Перевод 2: Профессиональный (многоголосый закадровый) - Варус Видео
Перевод 3: Субтитры - Мост Видео
Субтитры: русские, английские
Оригинальная аудиодорожка: английский
Режиссер: Коста-Гаврас / Costa-Gavras
В ролях: Джон Траволта, Дастин Хоффман, Миа Киршнер, Алан Алда, Роберт Проски, Блайт Дэннер, Уильям Этертон, Тед Ливайн, Тэмми Лоурен, Уильям О`Лири, Рэймонд Дж. Бэрри, Люсинда Дженни, Акошуа Бусиа, Эбби Роу Смит, Бингва, Крис Бирн, Бобби Брюэр, Макс Бекер, Филип Дэвид Робинсон, Милтон Дэвис мл., Джереми Эспиноза, Николь Феллоуз, Виктория Грегсон, Молли Хагер, Сара Хейни, Кайла Прэтт, Пейдж Тамада, Ханна Вон, Диллан Кристофер, Кирстен Нелли, Сильвия Шорт, Скэнлон Гэйл, Чарли Холлидэй, Кевин Куни, Джон Лэндис, Сьюзэн Сигал, Дженна Бирн, Джейсон Коттл, Рэндолл Батинкофф, Джулиан Уолл, Лаура Дэвис, Ник Скоггин, Хулио Оскар Мечосо, Рубен Гранди, Дэвид Кленнон, Джей Лено, Стефен Е. Кауфман, Ричард Портноу, Билл Рафферти, Курт Джонсон, Сьюзэн А. Буриг, Пастор Д. Сейферт, Дж.П. Бамстед, Шон О’Кейн, Донал О’Салливан, Ли Энн Мэнли, Велина Браун, Мишель-Барбара Пеллетье, Патриция Смит, Адина Голдман, Роджер Шамас, Стивен Браун, Ричард Гросс, Адам М. Коппекин, Аарон Лукич, Карин Матчинга, Том Фридли, Кристофер Майкл Мур, Дирк Блокер, Памела С. Лоус, Джон Халблейб, Шеннон Л. Линке, Эрик Викофф, Норман Берри, Чад Расселл, Стивен Лазанео, Омар Лима, Памела Алч, Мишель Сантопьетро, Лана Антонова, Аллан А. Апон, Рик Кэмп, Шоун Флэнеган, Дэн Гиффорд, Тим Хэлпин, Ларри Кинг, Билл Нанн, Боб Куинн, Рокко Салата, Мэридин Мэнсфилд Шепард, Джули Вагнер, Крейг Дж. Уайлс
Роли дублировали: Валерий Сторожик, Никита Прозоровский, Любовь Германова, Алексей Золотницкий, Владимир Ферапонтов, Людмила Ильина, Александр Новиков, Сергей Колесников, Сергей Чекан, Ольга Кузнецова
Роли озвучивали: Владимир Конкин, Дмитрий Полонский, Елена Борзунова
Описание: Блестящий журналист Макс Брэкетт после учиненного в эфире скандала вылетел с престижного телеканала. Вернуть его может только сенсация всеамериканского масштаба. Судьба предоставила Максу последний шанс: охранник Сэм Бейли, потеряв работу, решил восстановить справедливость с оружием в руках — взять в заложники бывшее начальство. Циничный репортер не ожидал от себя, что станет истинным другом отчаявшемуся неудачнику…
Доп. информация: Найденный в сети блюр, содержащий английский оригинал и английские субтитры, преобразован в ремукс, в него добавлены синхронизированные Нордером:
- дубляж из раздачи - http://rutracker.org/forum/viewtopic.php?t=642430;
- многоголоска из раздачи - http://rutracker.org/forum/viewtopic.php?t=4627965;
- русские и английские субтитры из раздачи - http://rutracker.org/forum/viewtopic.php?t=3341208.
Сэмпл: https://cloud.mail.ru/public/27rg/54YjuaSFC
Тип релиза: BDRemux 1080p
Контейнер: MKV
Видео: 30000 Кбит/сек, AVC (PAL) 1920*1080 (16:9), 25,000 кадров/сек, CABAC
Аудио: Русский, 384 Кбит/сек, 48,0 КГц, 16 бит, 6 каналов, AC-3 - дубляж
Аудио 2: Русский, 192 Кбит/сек, 48,0 КГц, 16 бит, 2 канала, AC-3 - многоголоска
Аудио 3: Английский, DTS MA: 5.1 / 48,0 КГц / 2416 Кбит/сек / 24 бит / (DTS Core: 5.1 / 48,0 КГц / 1509 Кбит/сек / 24 бит)
Формат субтитров: UTF

MediaInfo

Общее
Уникальный идентификатор : 192646357893654769262605027449306651534 (0x90EE56C46887267C458522EF58409B8E)
Полное имя : H:\MONAR\Видео\Художественные фильмы\Зарубежное кино\Безумный город (1997) BDRemux 1080i.mkv
Формат : Matroska
Версия формата : Version 4 / Version 2
Размер файла : 25,4 Гбайт
Продолжительность : 1 ч. 50 м.
Режим общего битрейта : Переменный
Общий поток : 33,0 Мбит/сек
Название фильма : Mad city (1997)
Дата кодирования : UTC 2018-01-12 18:29:21
Программа кодирования : mkvmerge v19.0.0 ('Brave Captain') 64-bit
Библиотека кодирования : libebml v1.3.5 + libmatroska v1.4.8
Видео
Идентификатор : 1
Формат : AVC
Формат/Информация : Advanced Video Codec
Профиль формата : High@L4.1
Настройки формата : CABAC / 4 Ref Frames
Параметр CABAC формата : Да
Параметр RefFrames формата : 4 кадра
Идентификатор кодека : V_MPEG4/ISO/AVC
Продолжительность : 1 ч. 50 м.
Вид битрейта : Переменный
Битрейт : 30,0 Мбит/сек
Максимальный битрейт : 35,0 Мбит/сек
Ширина : 1920 пикселей
Высота : 1080 пикселей
Соотношение сторон : 16:9
Режим частоты кадров : Постоянный
Частота кадров : 25,000 кадров/сек
Стандарт вещания : PAL
Цветовое пространство : YUV
Субдискретизация насыщенности : 4:2:0
Битовая глубина : 8 бит
Тип развёртки : MBAFF
Бит/(Пиксели*Кадры) : 0.579
Размер потока : 23,1 Гбайт (91%)
Язык : English
Default : Да
Forced : Нет
Цветовой диапазон : Limited
Основные цвета : BT.709
Характеристики трансфера : BT.709
Коэффициенты матрицы : BT.709
Аудио #1
Идентификатор : 2
Формат : AC-3
Формат/Информация : Audio Coding 3
Идентификатор кодека : A_AC3
Продолжительность : 1 ч. 50 м.
Вид битрейта : Постоянный
Битрейт : 384 Кбит/сек
Каналы : 6 каналов
Расположение каналов : Front: L C R, Side: L R, LFE
Частота : 48,0 КГц
Частота кадров : 31,250 кадров/сек (1536 SPF)
Битовая глубина : 16 бит
Метод сжатия : С потерями
Размер потока : 302 Мбайт (1%)
Заголовок : Dub
Язык : Russian
ServiceKind/String : Complete Main
Default : Да
Forced : Нет
Аудио #2
Идентификатор : 3
Формат : AC-3
Формат/Информация : Audio Coding 3
Идентификатор кодека : A_AC3
Продолжительность : 1 ч. 50 м.
Вид битрейта : Постоянный
Битрейт : 192 Кбит/сек
Каналы : 2 канала
Расположение каналов : Front: L R
Частота : 48,0 КГц
Частота кадров : 31,250 кадров/сек (1536 SPF)
Битовая глубина : 16 бит
Метод сжатия : С потерями
Размер потока : 151 Мбайт (1%)
Заголовок : MVO
Язык : Russian
ServiceKind/String : Complete Main
Default : Нет
Forced : Нет
Аудио #3
Идентификатор : 4
Формат : DTS
Формат/Информация : Digital Theater Systems
Профиль формата : MA / Core
Идентификатор кодека : A_DTS
Продолжительность : 1 ч. 50 м.
Вид битрейта : Переменный / Постоянный
Битрейт : 2416 Кбит/сек / 1509 Кбит/сек
Каналы : 6 каналов
Расположение каналов : Front: L C R, Side: L R, LFE
Частота : 48,0 КГц
Частота кадров : 93,750 кадра/сек (512 SPF)
Битовая глубина : 24 бит
Метод сжатия : Без потерь / Lossy
Размер потока : 1,86 Гбайт (7%)
Заголовок : original
Язык : English
Default : Нет
Forced : Нет
Текст #1
Идентификатор : 5
Формат : UTF-8
Идентификатор кодека : S_TEXT/UTF8
Идентификатор кодека/Информация : UTF-8 Plain Text
Продолжительность : 1 ч. 49 м.
Битрейт : 123 бит/сек
ElementCount : 1896
Размер потока : 99,3 Кбайт (0%)
Заголовок : srt
Язык : Russian
Default : Нет
Forced : Нет
Текст #2
Идентификатор : 6
Формат : UTF-8
Идентификатор кодека : S_TEXT/UTF8
Идентификатор кодека/Информация : UTF-8 Plain Text
Продолжительность : 1 ч. 47 м.
Битрейт : 82 бит/сек
ElementCount : 1884
Размер потока : 65,4 Кбайт (0%)
Заголовок : srt
Язык : English
Default : Нет
Forced : Нет
Меню
00:00:00.000 : en:Chapter 1
00:10:36.000 : en:Chapter 2
00:15:03.920 : en:Chapter 3
00:20:28.400 : en:Chapter 4
00:30:41.640 : en:Chapter 5
00:38:24.720 : en:Chapter 6
00:48:00.920 : en:Chapter 7
00:55:39.480 : en:Chapter 8
01:09:04.200 : en:Chapter 9
01:22:17.160 : en:Chapter 10
01:28:19.480 : en:Chapter 11
01:40:57.760 : en:Chapter 12

Скриншоты

[iv-torrents.ru].t82557.torrent
Torrent: Registered [ 2018-08-05 17:06 ] · 7E159F69CCCC8D2A90BA1E30995CC35C6BFC426E

Download .torrent

Download

32 KB

Status: checked
Completed: 2 times
Size: 25.36 GB
terms.php
Похожие темы


Display posts:    

Current time is: 15-Nov 10:12

All times are UTC ± 0


You cannot post new topics in this forum
You cannot reply to topics in this forum
You cannot edit your posts in this forum
You cannot delete your posts in this forum
You cannot vote in polls in this forum
You cannot attach files in this forum
You can download files in this forum

!ATTENTION!
The site does not give electronic versions of products, and is engaged only in a collecting and cataloguing of the references sent and published at a forum by our readers. If you are the legal owner of any submitted material and do not wish that the reference to it was in our catalogue, contact us and we shall immediately remove her. Files for an exchange on tracker are given by users of a site, and the administration does not bear the responsibility for their maintenance. The request to not fill in the files protected by copyrights, and also files of the illegal maintenance!