Ивановский Торрент трекер
Яндекс.Погода
DL-List and Torrent activity
Size:  3.92 GB   |    Registered:  4 years 3 months   |    Completed:  0 times
DL-List: None

Seeder not seen: Never

 
     
 
 
 

[Quote]
HUNTER

Без продыху / Без передышки / Бездыханные / Убить и закопать / Breathless Страна: США
Жанр: триллер, комедия
Год выпуска: 2012
Продолжительность: 01:27:29
Перевод: Профессиональный (многоголосый закадровый)
Cубтитры: нет
Режиссер: Джесси Баже / Jesse Baget
В ролях: Вэл Килмер, Рэй Лиотта, Джина Гершон, Келли Гиддиш, Уэйн Дювалл, Пол Кунео, Ричард Рили, Сид Вишес
Описание:
После убийства своего мужа, ограбившего банк, домохозяйка из Техаса должна избавиться от трупа и найти украденные деньги. В самый неподходящий для этого момент появляется местный шериф…
Ссылка на другие альтернативные раздачи
Сэмпл: http://rusfolder.com/43293580

Тип релиза: HDTV 1080i
Контейнер: TS
Видео: AVC/H.264, 1920x1080 (16:9), 5904 Кбит/сек, 25.000 fps
Аудио: русский, MP2, 2ch, 48,0 КГц, 192 Кбит/сек

MediaInfo

Общее
Идентификатор : 1 (0x1)
Полное имя : F:\раздачи\Убить и закопать.ts
Формат : MPEG-TS
Размер файла : 3,92 Гбайт
Продолжительность : 1 ч. 27 м.
Режим общего битрейта : Переменный
Общий поток : 6415 Кбит/сек
Максимальный общий битрейт : 35,5 Мбит/сек
Видео
Идентификатор : 4113 (0x1011)
Идентификатор меню : 1 (0x1)
Формат : AVC
Формат/Информация : Advanced Video Codec
Профиль формата : Main@L4.0
Параметр CABAC формата : Да
Параметр ReFrames формата : 3 кадра
Идентификатор кодека : 27
Продолжительность : 1 ч. 27 м.
Вид битрейта : Переменный
Битрейт : 5904 Кбит/сек
Максимальный битрейт : 40,0 Мбит/сек
Ширина : 1920 пикселей
Высота : 1080 пикселей
Соотношение сторон : 16:9
Частота кадров : 25,000 кадров/сек
Стандарт вещания : Component
Цветовое пространство : YUV
Субдискретизация насыщенности : 4:2:0
Битовая глубина : 8 бит
Тип развёртки : Чересстрочная
Порядок развёртки : Верхнее поле первое
Бит/(Пиксели*Кадры) : 0.114
Размер потока : 3,61 Гбайт (92%)
colour_range : Limited
Аудио
Идентификатор : 4352 (0x1100)
Идентификатор меню : 1 (0x1)
Формат : MPEG Audio
Версия формата : Version 1
Профиль формата : Layer 2
Идентификатор кодека : 4
Продолжительность : 1 ч. 27 м.
Вид битрейта : Постоянный
Битрейт : 192 Кбит/сек
Каналы : 2 канала
Частота : 48,0 КГц
Метод сжатия : С потерями
Размер потока : 120 Мбайт (3%)
Язык : Russian

Скриншоты с названием фильма

Скриншоты

[iv-torrents.ru].t42438.torrent
Torrent: Registered [ 2015-03-26 02:14 ] · 7629885555D49801D3D1A0CBB0FC328107E07646

Download .torrent

Download

20 KB

Status: checked
Completed: 0 times
Size: 3.92 GB
terms.php
Похожие темы


Quick Reply

Name:

               
       
     
Heads necessary to send messages to enable JavaScript
Display posts:    

Current time is: 22-Jul 04:03

All times are UTC ± 0


You can post new topics in this forum
You can reply to topics in this forum
You cannot edit your posts in this forum
You cannot delete your posts in this forum
You cannot vote in polls in this forum
You cannot attach files in this forum
You can download files in this forum

!ATTENTION!
The site does not give electronic versions of products, and is engaged only in a collecting and cataloguing of the references sent and published at a forum by our readers. If you are the legal owner of any submitted material and do not wish that the reference to it was in our catalogue, contact us and we shall immediately remove her. Files for an exchange on tracker are given by users of a site, and the administration does not bear the responsibility for their maintenance. The request to not fill in the files protected by copyrights, and also files of the illegal maintenance!