Ивановский Торрент трекер
Яндекс.Погода
DL-List and Torrent activity
None
 
     
 
 

[Quote]
HUNTER

Без лица / Face/Off-«Взгляни на мир глазами своего врага.»-
Год выпуска: 1997
Страна: США
Жанр: боевик, триллер, криминал
Продолжительность: 02:18:56
Перевод №1: Авторский (одноголосый)[Ю.Живов]
Перевод №2: Авторский (одноголосый)[А.Гаврилов]
Русские субтитры: нет-Режиссер: Джон Ву / John Woo-В ролях: Джон Траволта (Sean Archer / Castor Troy,), Николас Кейдж (Castor Troy / Sean Archer,), Джоан Аллен (Dr. Eve Archer), Алессандро Нивола (Pollux Troy), Джина Гершон (Sasha Hassler), Доминик Суэйн (Jamie Archer), Ник Кассаветис (Dietrich Hassler), Харви Преснелл (Victor Lazarro), Колм Фиор (Dr. Malcolm Walsh), Джон Кэрролл Линч (Walton, Prison Guard)-Описание: Чтобы отомстить за жестокое убийство своего сына, агент ФБР Шон Арчер соглашается на сложную хирургическую операцию. Он берет себе новое лицо, лицо террориста Кастора Троя, который находится в коме.
Однако происходит непредвиденное: Трой приходит в себя и исчезает в обличьи Арчера. Жизнь Шона превращается в настоящий кошмар — ему приходится сражаться не только за свою жизнь, но и за жизнь своей жены и дочери.
- -Качество: BDRip [Исх. BDRemux/1080p]
Формат: AVI
Видео кодек: XviD
Аудио кодек: AC3
Видео: 720x304 (2.37:1), 23.976 fps, XviD build 50 ~1312 kbps avg, 0.25 bit/pixel
Аудио#1: 48 kHz, AC3 Dolby Digital, 2/0 (L,R) ch, ~192.00 kbps avg[Ю.Живов]
Аудио#2: 48 kHz, AC3 Dolby Digital, 2/0 (L,R) ch, ~192.00 kbps avg[А.Гаврилов]-

Рейтинги:

Знаете ли Вы, что...

От Джона Ву требовали, чтобы он убрал слэш из названия (Face/Off), однако он справедливо решил оставить именно такое название, чтобы зрители не подумали, что эта картина посвящена хоккейной тематике (Faceoff - хоккейный термин, обозначающий вбрасывание).
Первая версия сценария разворачивалась в недалеком будущем, однако Джон Ву решил, что действие картины будет развиваться в настоящем, чтобы внимание зрителей было сконцентрировано не на восприятии мира будущего, а на психологических и драматических моментах сюжета.
Название тюрьмы по-английски звучит как «Erewhon». Это слово является простейшей анаграммой слова «Нигде» («Nowhere»).
Когда проект находился в зачаточном состоянии, на исполнение главных ролей в голове продюсеров держались следующие имена: Арнольд Шварценнегер и Сильвестр Сталлоне.
Как признался впоследствии продюсер Барри Осборн, многие экшн-сцены планировалось отснять на фоне зеленого экрана. Но Джон Ву категорически отверг эти предложения и прибегнул к традиционным натурным съемкам.
Кастор и Поллукс - имена братьев полубогов-героев, персонажей древнегреческой мифологии. Однако, в отличии от кинокартины Джона Ву, именно Кастор обладал пытливым умом, а Поллукс, напротив, был невероятно силён и ловок.
-

MI

General
Complete name : E:\INTERNET\Face Off.1997.BDRip.2x[AVO] (Jyvov, Gavrilov).km.avi
Format : AVI
Format/Info : Audio Video Interleave
File size : 1.66 GiB
Duration : 2h 18mn
Overall bit rate : 1 711 Kbps
Writing application : VirtualDubMod 1.5.10.3 (build 2550/release)
Writing library : VirtualDubMod build 2550/release
Video
ID : 0
Format : MPEG-4 Visual
Format profile : Advanced Simple@L5
Format settings, BVOP : Yes
Format settings, QPel : No
Format settings, GMC : No warppoints
Format settings, Matrix : Default (H.263)
Codec ID : XVID
Codec ID/Hint : XviD
Duration : 2h 18mn
Bit rate : 1 313 Kbps
Width : 720 pixels
Height : 304 pixels
Display aspect ratio : 2.35:1
Frame rate : 23.976 fps
Color space : YUV
Chroma subsampling : 4:2:0
Bit depth : 8 bits
Scan type : Progressive
Bits/(Pixel*Frame) : 0.250
Stream size : 1.27 GiB (77%)
Writing library : XviD 1.2.1 (UTC 2008-12-04)
Audio #1
ID : 1
Format : AC-3
Format/Info : Audio Coding 3
Mode extension : CM (complete main)
Codec ID : 2000
Duration : 2h 18mn
Bit rate mode : Constant
Bit rate : 192 Kbps
Channel(s) : 2 channels
Channel positions : Front: L R
Sampling rate : 48.0 KHz
Bit depth : 16 bits
Stream size : 191 MiB (11%)
Alignment : Split accross interleaves
Interleave, duration : 42 ms (1.00 video frame)
Interleave, preload duration : 500 ms
Audio #2
ID : 2
Format : AC-3
Format/Info : Audio Coding 3
Mode extension : CM (complete main)
Codec ID : 2000
Duration : 2h 18mn
Bit rate mode : Constant
Bit rate : 192 Kbps
Channel(s) : 2 channels
Channel positions : Front: L R
Sampling rate : 48.0 KHz
Bit depth : 16 bits
Stream size : 191 MiB (11%)
Alignment : Split accross interleaves
Interleave, duration : 42 ms (1.00 video frame)
Interleave, preload duration : 500 ms

Скриншоты

-


Display posts:    

Current time is: 25-Apr 13:51

All times are UTC ± 0


You cannot post new topics in this forum
You cannot reply to topics in this forum
You cannot edit your posts in this forum
You cannot delete your posts in this forum
You cannot vote in polls in this forum
You cannot attach files in this forum
You cannot download files in this forum

!ATTENTION!
The site does not give electronic versions of products, and is engaged only in a collecting and cataloguing of the references sent and published at a forum by our readers. If you are the legal owner of any submitted material and do not wish that the reference to it was in our catalogue, contact us and we shall immediately remove her. Files for an exchange on tracker are given by users of a site, and the administration does not bear the responsibility for their maintenance. The request to not fill in the files protected by copyrights, and also files of the illegal maintenance!