Ивановский Торрент трекер
Яндекс.Погода
 

[Цитировать]
HUNTER

Бэтмен: Возвращение рыцарей в масках
Batman: Return of the Caped Crusaders
Страна: США
Жанр: мультфильм, фантастика, боевик, комедия
Продолжительность: 01:18:17
Год выпуска: 2016
Перевод: Любительский (многоголосый закадровый) (Колобок)
Русские субтитры: нет
Режиссёр: Рик Моралес / Rick Morales
Роли озвучивали: Адам Уэст, Берт Уорд, Джули Ньюмар, Джефф Бергман, Сирена Ирвин, Томас Леннон, Уильям Салиерс, Линн Мари Стюарт, Джим Уорд, Стивен Уэбер-Описание: В городе Готэм опять серьезные проблемы. Три суперзлодея: психопат Джокер, любитель кроссвордов Загадочник и злой Пингвин объединились. По по своим соображениям к ним примкнула обворожительная и хитрая женщина-кошка.
Кто же придет на помощь людям? Конечно же переодетый в костюм ночной летучей мыши Бэтмен и его верный помощник Робин. Но удастся ли им отвести эту угрозу? Ведь коварство преступников не знает границ и может случится так, что герой станет злодеем, а преступник окажется в рядах спасителей.
-Качество: HDRip
Формат: AVI
Видео: XviD, 720x400 (1,8:1), 23,976 fps, ~1900 kbps
Аудио 1: AC3 Dolby Digital, 48 kHz, 2 ch, 192 kbps (Rus)
Аудио 2: AC3 Dolby Digital, 48 kHz, 6 ch, 384 kbps (Eng)
Субтитры: отсутствуют

Подробные технические данные

Общее
Полное имя : Batman.Return.of.the.Caped.Crusaders.2016.avi
Формат : AVI
Формат/Информация : Audio Video Interleave
Размер файла : 1,36 Гбайт
Продолжительность : 1 ч. 18 м.
Общий поток : 2494 Кбит/сек
Программа кодирования : VirtualDubMod 1.5.10.2 (build 2542/release)
Библиотека кодирования : VirtualDubMod build 2542/release
Видео
Идентификатор : 0
Формат : MPEG-4 Visual
Профиль формата : Advanced Simple@L5
Параметр BVOP формата : 2
Параметр QPel формата : Нет
Параметр GMC формата : Без точки перехода
Параметр матрицы формата : Выборочная
Идентификатор кодека : XVID
Идентификатор кодека/Подсказка : XviD
Продолжительность : 1 ч. 18 м.
Битрейт : 1904 Кбит/сек
Ширина : 720 пикселей
Высота : 400 пикселей
Соотношение сторон : 16:9
Частота кадров : 23,976 кадра/сек
Цветовое пространство : YUV
Субдискретизация насыщенности : 4:2:0
Битовая глубина : 8 бит
Тип развёртки : Прогрессивная
Метод сжатия : С потерями
Бит/(Пиксели*Кадры) : 0.276
Размер потока : 1,04 Гбайт (76%)
Библиотека кодирования : XviD 65
Аудио #1
Идентификатор : 1
Формат : AC-3
Формат/Информация : Audio Coding 3
Расширение режима : CM (complete main)
Параметр Endianness формата : Big
Идентификатор кодека : 2000
Продолжительность : 1 ч. 18 м.
Вид битрейта : Постоянный
Битрейт : 192 Кбит/сек
Каналы : 2 канала
Расположение каналов : Front: L R
Частота : 48,0 КГц
Битовая глубина : 16 бит
Метод сжатия : С потерями
Размер потока : 108 Мбайт (8%)
Выравнивание : Разделение по промежуткам
Продолжительность промежутка : 42 мс. (1,00 видеокадр)
Время предзагрузки промежутка : 500 мс.
Аудио #2
Идентификатор : 2
Формат : AC-3
Формат/Информация : Audio Coding 3
Расширение режима : CM (complete main)
Параметр Endianness формата : Big
Идентификатор кодека : 2000
Продолжительность : 1 ч. 18 м.
Вид битрейта : Постоянный
Битрейт : 384 Кбит/сек
Каналы : 6 каналов
Расположение каналов : Front: L C R, Side: L R, LFE
Частота : 48,0 КГц
Битовая глубина : 16 бит
Метод сжатия : С потерями
Размер потока : 215 Мбайт (15%)
Выравнивание : Разделение по промежуткам
Продолжительность промежутка : 42 мс. (1,00 видеокадр)
Время предзагрузки промежутка : 500 мс.


Показать сообщения:    

Текущее время: 19-Янв 10:40

Часовой пояс: UTC ± 0


Вы не можете начинать темы
Вы не можете отвечать на сообщения
Вы не можете редактировать свои сообщения
Вы не можете удалять свои сообщения
Вы не можете голосовать в опросах
Вы не можете прикреплять файлы к сообщениям
Вы не можете скачивать файлы

!ВНИМАНИЕ!
Сайт не предоставляет электронные версии произведений, а занимается лишь коллекционированием и каталогизацией ссылок, присылаемых и публикуемых на форуме нашими читателями. Если вы являетесь правообладателем какого-либо представленного материала и не желаете, чтобы ссылка на него находилась в нашем каталоге, свяжитесь с нами, и мы незамедлительно удалим ее. Файлы для обмена на трекере предоставлены пользователями сайта, и администрация не несет ответственности за их содержание. Просьба не заливать файлы, защищенные авторскими правами, а также файлы нелегального содержания!