Ивановский Торрент трекер
Яндекс.Погода
Статистика раздачи
Нет
 
     
 
 

[Цитировать]
HUNTER


Бэтмен:Убийственная шутка / Batman: The Killing Joke
«The madness begins» -Страна: США.
Жанр: Мультфильм, боевик, триллер, криминал.
Продолжительность: 01:16:39
Год выпуска: 2016.
Перевод: Профессиональный (дублированный) SDI Media;
Любительский (многоголосый закадровый) ZM-Show;
Любительский (многоголосый закадровый) Saint Sound TV;
Любительский (многоголосый закадровый) GoASound;
Любительский (одноголосый закадровый) Solod;
Любительский (многоголосый закадровый) LE-Production & Arasi Project;
Любительский (многоголосый закадровый) Shadow Dub Project.
Русские субтитры: Есть.
Режиссёр: Sam Liu / Сэм Лью.
Роли озвучивали: Кевин Конрой, Марк Хэмилл, Тара Стронг, Рэй Уайз, Джон Ди Маджио, Робин Аткин Даунс, Брайан Джордж, Джон Пол Карлиак, Эндрю Кисино, Нолан Норт.--Описание: Бэтмен появляется в клинике Аркхем, где выясняет, что Джокер сумел бежать из-под охраны. Этот опасный пациент был под наблюдением, но теперь его функции развлекать лечебницу переданы другому. Тот в роли клоуна, не отдающего себе отчета в последствиях происходящего. Джокер на свободе и намерен показать окружающим, на что способен. Ошибались те, кто считал его умалишенным. Мир вокруг сошел с ума, а у Джокера есть свои планы и способы их реализации. Парк аттракционов, давно не функционирующий, куплен беглецом из клиники за копейки. Это первый шаг на пути к мечте. Джеймс Гордон становится помощником Джокера. Почему именно он? Гордон олицетворяет собой честь и мораль в Готэме, прогнившем насквозь…--

Роли озвучивали :

ZM-SHOW

Перевод на русский: Агата Клинцова.
Закадровые голоса: Михаил Тихонов, Владислав Данилов, Дмитрий Лунев, Иван Мтрск, Кирилл Лавров, Анастасия Лаглер.

Saint Sound

Закадровые голоса: Маргарита Корш, Андрей Стакионис, Александр Луговский, Евгений Леонов, Никита Аитов, Игорь Хрусталев, Полина Касаткина, Макс Фривинг и Алексей Щегорский.

GoASound

Работа со звуком: Gink Freud.
Закадровые голоса: Wolverrine, Сергей Павлов, Reina, Кирамбет.

LE-Production & Arasi Project

Закадровые голоса: Тимиркан Сиюхов, Маргарита Щелкунова, Arasi Project, Prince, Ruzakil, Владимир Цой.
Релиз: -Благодарности:
Спасибо BenderBEST за покупку дублированной дорожки;
Спасибо eugeen.solod за любезно предоставленный чистый голос Solod;
Спасибо ZM-SHOW за любезно предоставленные чистые голоса;
Спасибо Saint Sound за любезно предоставленные чистые голоса;
Спасибо Александр Пейн за любезно предоставленные чистые голоса GoASound,
Спасибо xfiles за помощь и советы по кодированию аудио.-Качество: BDRemux 1080p
Формат: MKV
Видео кодек: HEVC
Аудио кодек: AC3, DTS MA
Видео: MPEG-H HEVC Video / 3840x2160 / 80.9 Mb/s / 23.976 fps / 16:9 / Main 10 Profile 5.1 High / 4:2:0 / 10 bits / HDR / BT.2020 /
Аудио 1: AC3, 5.1 (L,C,R,SL,SR)+LFE ch, 448 kbps............................................................................................ Дубляж SDI Media
Аудио 2: DTS-HD Master Audio / 5.1 / 48 kHz / 2054 kbps / 16-bit (DTS Core: 5.1 / 48 kHz / 1509 kbps / 16-bit)..... ZM-Show
Аудио 3: DTS-HD Master Audio / 5.1 / 48 kHz / 2060 kbps / 16-bit (DTS Core: 5.1 / 48 kHz / 1509 kbps / 16-bit)..... Saint Sound TV
Аудио 4: DTS-HD Master Audio / 5.1 / 48 kHz / 2047 kbps / 16-bit (DTS Core: 5.1 / 48 kHz / 1509 kbps / 16-bit)..... GoASound
Аудио 5: DTS-HD Master Audio / 5.1 / 48 kHz / 2048 kbps / 16-bit (DTS Core: 5.1 / 48 kHz / 1509 kbps / 16-bit)..... Solod
Аудио 6: AC3, 5.1 (L,C,R,SL,SR)+LFE ch, 640 kbps............................................................................................ LE-Production & Arasi Project
Аудио 7: AC3, 2.0 (L,R) ch, 192 kbps............................................................................................................... Shadow Dub Project
Аудио 8: DTS-HD Master Audio / 5.1 / 48 kHz / 2044 kbps / 24-bit (DTS Core: 5.1 / 48 kHz / 1509 kbps / 24-bit)..... English
Субтитры: Русский, English, English-SDH.
Навигация по главам: 8 глав (не именных)

MInfo

General
Unique ID : 49511602672391068718816292519627943162 (0x253F967B3FD690F487B7E4D9C5336CFA)
Complete name : D:\Torrents\Batman The Killing Joke (2016) UHD BDRemux 2160p Bobropandavar.mkv
Format : Matroska
Format version : Version 4
File size : 49.5 GiB
Duration : 1 h 16 min
Overall bit rate mode : Variable
Overall bit rate : 92.4 Mb/s
Encoded date : UTC 2019-03-10 22:58:37
Writing application : mkvmerge v31.0.0 ('Dolores In A Shoestand') 64-bit
Writing library : libebml v1.3.6 + libmatroska v1.4.9
Cover : Yes
Attachments : cover.jpg
Video
ID : 1
Format : HEVC
Format/Info : High Efficiency Video Coding
Commercial name : HDR10
Format profile : Main 10@L5.1@High
Codec ID : V_MPEGH/ISO/HEVC
Duration : 1 h 16 min
Bit rate : 80.9 Mb/s
Width : 3 840 pixels
Height : 2 160 pixels
Display aspect ratio : 16:9
Frame rate mode : Constant
Frame rate : 23.976 (24000/1001) FPS
Color space : YUV
Chroma subsampling : 4:2:0 (Type 2)
Bit depth : 10 bits
Bits/(Pixel*Frame) : 0.407
Stream size : 43.3 GiB (88%)
Title : Batman The Killing Joke (2016) UHD BDRemux 2160p Bobropandavar
Writing library : ATEME Titan File 3.8.16 (4.8.16.0)
Language : English
Default : Yes
Forced : No
Color range : Limited
Color primaries : BT.2020
Transfer characteristics : PQ
Matrix coefficients : BT.2020 non-constant
Mastering display color pri : Display P3
Mastering display luminance : min: 0.0050 cd/m2, max: 4000 cd/m2
Maximum Content Light Level : 828 cd/m2
Maximum Frame-Average Light : 197 cd/m2
Audio #1
ID : 2
Format : AC-3
Format/Info : Audio Coding 3
Commercial name : Dolby Digital
Codec ID : A_AC3
Duration : 1 h 16 min
Bit rate mode : Constant
Bit rate : 448 kb/s
Channel(s) : 6 channels
Channel layout : L R C LFE Ls Rs
Sampling rate : 48.0 kHz
Frame rate : 31.250 FPS (1536 SPF)
Bit depth : 16 bits
Compression mode : Lossy
Stream size : 246 MiB (0%)
Title : SDI Media
Language : Russian
Service kind : Complete Main
Default : Yes
Forced : No
Audio #2
ID : 3
Format : DTS XLL
Format/Info : Digital Theater Systems
Commercial name : DTS-HD Master Audio
Codec ID : A_DTS
Duration : 1 h 16 min
Bit rate mode : Variable
Bit rate : 2 051 kb/s
Channel(s) : 6 channels
Channel layout : C L R Ls Rs LFE
Sampling rate : 48.0 kHz
Frame rate : 93.750 FPS (512 SPF)
Bit depth : 16 bits
Compression mode : Lossless
Stream size : 1.10 GiB (2%)
Title : ZM-SHOW
Language : Russian
Default : No
Forced : No
Audio #3
ID : 4
Format : DTS XLL
Format/Info : Digital Theater Systems
Commercial name : DTS-HD Master Audio
Codec ID : A_DTS
Duration : 1 h 16 min
Bit rate mode : Variable
Bit rate : 2 056 kb/s
Channel(s) : 6 channels
Channel layout : C L R Ls Rs LFE
Sampling rate : 48.0 kHz
Frame rate : 93.750 FPS (512 SPF)
Bit depth : 16 bits
Compression mode : Lossless
Stream size : 1.10 GiB (2%)
Title : Saint Sound TV
Language : Russian
Default : No
Forced : No
Audio #4
ID : 5
Format : DTS XLL
Format/Info : Digital Theater Systems
Commercial name : DTS-HD Master Audio
Codec ID : A_DTS
Duration : 1 h 16 min
Bit rate mode : Variable
Bit rate : 2 043 kb/s
Channel(s) : 6 channels
Channel layout : C L R Ls Rs LFE
Sampling rate : 48.0 kHz
Frame rate : 93.750 FPS (512 SPF)
Bit depth : 16 bits
Compression mode : Lossless
Stream size : 1.09 GiB (2%)
Title : GoASound
Language : Russian
Default : No
Forced : No
Audio #5
ID : 6
Format : DTS XLL
Format/Info : Digital Theater Systems
Commercial name : DTS-HD Master Audio
Codec ID : A_DTS
Duration : 1 h 16 min
Bit rate mode : Variable
Bit rate : 2 067 kb/s
Channel(s) : 6 channels
Channel layout : C L R Ls Rs LFE
Sampling rate : 48.0 kHz
Frame rate : 93.750 FPS (512 SPF)
Bit depth : 16 bits
Compression mode : Lossless
Stream size : 1.11 GiB (2%)
Title : Solod
Language : Russian
Default : No
Forced : No
Audio #6
ID : 7
Format : AC-3
Format/Info : Audio Coding 3
Commercial name : Dolby Digital
Codec ID : A_AC3
Duration : 1 h 16 min
Bit rate mode : Constant
Bit rate : 640 kb/s
Channel(s) : 6 channels
Channel layout : L R C LFE Ls Rs
Sampling rate : 48.0 kHz
Frame rate : 31.250 FPS (1536 SPF)
Bit depth : 16 bits
Compression mode : Lossy
Stream size : 351 MiB (1%)
Title : LE-Production & Arasi Project
Language : Russian
Service kind : Complete Main
Default : No
Forced : No
Audio #7
ID : 8
Format : AC-3
Format/Info : Audio Coding 3
Commercial name : Dolby Digital
Codec ID : A_AC3
Duration : 1 h 16 min
Bit rate mode : Constant
Bit rate : 192 kb/s
Channel(s) : 2 channels
Channel layout : L R
Sampling rate : 48.0 kHz
Frame rate : 31.250 FPS (1536 SPF)
Bit depth : 16 bits
Compression mode : Lossy
Stream size : 105 MiB (0%)
Title : Shadow Dub Project
Language : Russian
Service kind : Complete Main
Default : No
Forced : No
Audio #8
ID : 9
Format : DTS XLL
Format/Info : Digital Theater Systems
Commercial name : DTS-HD Master Audio
Codec ID : A_DTS
Duration : 1 h 16 min
Bit rate mode : Variable
Bit rate : 2 040 kb/s
Channel(s) : 6 channels
Channel layout : C L R Ls Rs LFE
Sampling rate : 48.0 kHz
Frame rate : 93.750 FPS (512 SPF)
Bit depth : 24 bits
Compression mode : Lossless
Stream size : 1.09 GiB (2%)
Title : Original
Language : English
Default : No
Forced : No
Text #1
ID : 10
Format : UTF-8
Codec ID : S_TEXT/UTF8
Codec ID/Info : UTF-8 Plain Text
Duration : 1 h 13 min
Bit rate : 100 b/s
Count of elements : 997
Stream size : 53.8 KiB (0%)
Title : Русский
Language : Russian
Default : No
Forced : No
Text #2
ID : 11
Format : UTF-8
Codec ID : S_TEXT/UTF8
Codec ID/Info : UTF-8 Plain Text
Duration : 1 h 16 min
Bit rate : 59 b/s
Count of elements : 1000
Stream size : 33.2 KiB (0%)
Title : English
Language : English
Default : No
Forced : No
Text #3
ID : 12
Format : UTF-8
Codec ID : S_TEXT/UTF8
Codec ID/Info : UTF-8 Plain Text
Duration : 1 h 16 min
Bit rate : 64 b/s
Count of elements : 1157
Stream size : 36.2 KiB (0%)
Title : English-SDH
Language : English
Default : No
Forced : No
Menu
00:00:00.000 : :Глава 01
00:10:06.606 : :Глава 02
00:20:30.520 : :Глава 03
00:30:08.139 : :Глава 04
00:41:23.522 : :Глава 05
00:51:27.209 : :Глава 06
01:02:21.404 : :Глава 07
01:11:51.765 : :Глава 08

Скриншоты


-МОИ РАЗДАЧИ-НЕ ЗАБЫВАЕМ БЛАГОДАРИТЬ НАЖАТИЕМ КНОПОЧКИ "СПАСИБО"


Показать сообщения:    

Текущее время: 24-Мар 13:40

Часовой пояс: UTC ± 0


Вы не можете начинать темы
Вы не можете отвечать на сообщения
Вы не можете редактировать свои сообщения
Вы не можете удалять свои сообщения
Вы не можете голосовать в опросах
Вы не можете прикреплять файлы к сообщениям
Вы не можете скачивать файлы

!ВНИМАНИЕ!
Сайт не предоставляет электронные версии произведений, а занимается лишь коллекционированием и каталогизацией ссылок, присылаемых и публикуемых на форуме нашими читателями. Если вы являетесь правообладателем какого-либо представленного материала и не желаете, чтобы ссылка на него находилась в нашем каталоге, свяжитесь с нами, и мы незамедлительно удалим ее. Файлы для обмена на трекере предоставлены пользователями сайта, и администрация не несет ответственности за их содержание. Просьба не заливать файлы, защищенные авторскими правами, а также файлы нелегального содержания!