Ивановский Торрент трекер
Яндекс.Погода
 

[Quote]
HUNTER

Бэтмен: Готэм в газовом свете / Batman: Gotham by Gaslight
Страна: США
Жанр: мультфильм, фэнтези, боевик, криминал, детектив
Продолжительность: 01:17:00
Год выпуска: 2018
Перевод: Любительский (многоголосый закадровый) D1
Русские субтитры: нет
-
Режиссёр: Сэм Лью
Роли озвучивали: Дженнифер Карпентер, Тара Стронг, Брюс Гринвуд, Скотт Гордон-Паттерсон, Кари Вурер, Грэй ДеЛисл, Джон Ди Маджио, Энтони Хэд, Линкольн Мелчер, Юрий Ловенталь
Описание: Готэм в сеттинге Викторианской эпохи. В городе регулярно происходят зверские убийства женщин легкого поведения. И пока полиция нехотя ищет маньяка, на его след нападает Бэтмен. Ведь по слухам нападения на женщин совершает легендарный Джек Потрошитель...
-
Реклама отсутствует
-
Семпл: http://sendfile.su/1398062
Качество: BDRip 720p
Формат: MKV
Видео: AVC, 1280x720 (16:9), 4571 Kbps, 23.976 fps
Аудио: Russian, AC3 Dolby Digital 2ch, 48000 Гц, 192 Кбит/сек
Аудио 2: Eng, DTS 6ch, 48000 Гц, 1509 Кбит/сек
Субтитры: Отсутствуют

Подробные технические данные

Формат : Matroska
Версия формата : Version 4 / Version 2
Размер файла : 3,38 Гбайт
Продолжительность : 1 ч. 17 м.
Общий поток : 6275 Кбит/сек
Дата кодирования : UTC 2018-02-10 23:05:46
Программа кодирования : mkvmerge v18.0.0 ('Apricity') 64-bit
Библиотека кодирования : libebml v1.3.5 + libmatroska v1.4.8
DURATION : 01:17:04.192000000
NUMBER_OF_FRAMES : 144506
NUMBER_OF_BYTES : 110980608
_STATISTICS_WRITING_APP : mkvmerge v18.0.0 ('Apricity') 64-bit
_STATISTICS_WRITING_DATE_UTC : 2018-02-10 23:05:46
_STATISTICS_TAGS : BPS DURATION NUMBER_OF_FRAMES NUMBER_OF_BYTES
Видео
Идентификатор : 1
Формат : AVC
Формат/Информация : Advanced Video Codec
Профиль формата : [email protected]
Параметр CABAC формата : Да
Параметр ReFrames формата : 5 кадров
Идентификатор кодека : V_MPEG4/ISO/AVC
Продолжительность : 1 ч. 17 м.
Битрейт : 4571 Кбит/сек
Ширина : 1280 пикселей
Высота : 720 пикселей
Соотношение сторон : 16:9
Режим частоты кадров : Постоянный
Частота кадров : 23,976 кадра/сек
Цветовое пространство : YUV
Субдискретизация насыщенности : 4:2:0
Битовая глубина : 8 бит
Тип развёртки : Прогрессивная
Бит/(Пиксели*Кадры) : 0.207
Размер потока : 2,40 Гбайт (71%)
Библиотека кодирования : x264 core 155 r2901 7d0ff22
Настройки программы : cabac=1 / ref=5 / deblock=1:-1:-1 / analyse=0x3:0x133 / me=umh / subme=8 / psy=1 / psy_rd=1.00:0.15 / mixed_ref=1 / me_range=16 / chroma_me=1 / trellis=1 / 8x8dct=1 / cqm=0 / deadzone=21,11 / fast_pskip=0 / chroma_qp_offset=-4 / threads=22 / lookahead_threads=3 / sliced_threads=0 / nr=0 / decimate=1 / interlaced=0 / bluray_compat=0 / constrained_intra=0 / bframes=3 / b_pyramid=2 / b_adapt=2 / b_bias=0 / direct=3 / weightb=1 / open_gop=0 / weightp=2 / keyint=240 / keyint_min=23 / scenecut=40 / intra_refresh=0 / rc_lookahead=50 / rc=2pass / mbtree=1 / bitrate=4571 / ratetol=1.0 / qcomp=0.60 / qpmin=10 / qpmax=69 / qpstep=4 / cplxblur=20.0 / qblur=0.5 / ip_ratio=1.40 / aq=1:1.00
Язык : English
Default : Да
Forced : Нет
Аудио #1
Идентификатор : 2
Формат : AC-3
Формат/Информация : Audio Coding 3
Расширение режима : CM (complete main)
Параметр Endianness формата : Big
Идентификатор кодека : A_AC3
Продолжительность : 1 ч. 17 м.
Вид битрейта : Постоянный
Битрейт : 192 Кбит/сек
Каналы : 2 канала
Расположение каналов : Front: L R
Частота : 48,0 КГц
Битовая глубина : 16 бит
Метод сжатия : С потерями
Размер потока : 106 Мбайт (3%)
Default : Да
Forced : Нет
Аудио #2
Идентификатор : 3
Формат : DTS
Формат/Информация : Digital Theater Systems
Режим : 16
Параметр Endianness формата : Big
Идентификатор кодека : A_DTS
Продолжительность : 1 ч. 17 м.
Вид битрейта : Постоянный
Битрейт : 1509 Кбит/сек
Каналы : 6 каналов
Расположение каналов : Front: L C R, Side: L R, LFE
Частота : 48,0 КГц
Битовая глубина : 24 бит
Метод сжатия : С потерями
Размер потока : 832 Мбайт (24%)
Язык : English
Default : Нет
Forced : Нет

Скриншоты

Над релизом работали

Над релизом работали:
Сергей Щегольков (Голос, сведение, постер)
Арина Покидышева (Голос)
Павел Коломоец (Голос)


Display posts:    

Current time is: 09-Jul 10:57

All times are UTC ± 0


You cannot post new topics in this forum
You cannot reply to topics in this forum
You cannot edit your posts in this forum
You cannot delete your posts in this forum
You cannot vote in polls in this forum
You cannot attach files in this forum
You cannot download files in this forum

!ATTENTION!
The site does not give electronic versions of products, and is engaged only in a collecting and cataloguing of the references sent and published at a forum by our readers. If you are the legal owner of any submitted material and do not wish that the reference to it was in our catalogue, contact us and we shall immediately remove her. Files for an exchange on tracker are given by users of a site, and the administration does not bear the responsibility for their maintenance. The request to not fill in the files protected by copyrights, and also files of the illegal maintenance!