Важное объявление!
У Нас Все раздачи мультитрекерные, при нуле пиров в релизах, можете смело вставать на закачку!
 
Автор Сообщение

HUNTER

Стаж:
4 года 4 месяца
Сообщений:
56734

Репутация: 101

[+] [-]
Вне форума [Профиль] [ЛС]

BBC. Эбола. Линия фронта / Ebola Frontline
Дата/Год выпуска: 2014
Страна: Великобритания, BBC
Жанр: Документальный, познавательный, расследование
Продолжительность: 00:45:32
Перевод: Профессиональный (дублированный)
Русские субтитры: нет
Оригинальная аудиодорожка: нет
Режиссер: Стивен Грэндисон / Steven Grandison
Описание: Август 2014 года. Весь мир трясет от старшных новостей, в которые невозможно поверить. Эпидемия лихорадки Эбола - одна из самых жутких в мире болезней. В страшных муках - именно такова смерть от Эболы - скончались уже больше 1000 человек. Ситуация достигла критической точки...
Семпл: http://sendfile.su/1156023
качество: SATRip
формат: AVI
Видео: Xvid 720x400 25fps 1 750 Kbps
Аудио: AC3 48000Hz stereo 192kbps

MediaInfo

D:\Документальные фильмы\BBC. Эбола. Линия фронта.2014.XviD.SATRip.avi General Complete name : D:\Документальные фильмы\BBC. Эбола. Линия фронта.2014.XviD.SATRip.avi Format : AVI Format/Info : Audio Video Interleave File size : 636 MiB Duration : 45mn 32s Overall bit rate : 1 951 Kbps Movie name : BBC. Ebola Frontline Director : SATRip by Thunder Writing application : VirtualDubMod 1.5.10.3 | www.virtualdub-fr.org || (build 2550/release) Original source form/Name : Documentary Video #0 ID : 0 Format : MPEG-4 Visual Format profile : Advanced Simple@L5 Format settings, BVOP : Yes Format settings, QPel : No Format settings, GMC : No warppoints Format settings, Matrix : Default (H.263) Codec ID : XVID Codec ID/Hint : XviD Duration : 45mn 32s Bit rate : 1 750 Kbps Width : 720 pixels Height : 400 pixels Display aspect ratio : 16:9 Frame rate : 25.000 fps Color space : YUV Chroma subsampling : 4:2:0 Bit depth : 8 bits Scan type : Progressive Bits/(Pixel*Frame) : 0.243 Stream size : 570 MiB (90%) Writing library : XviD 1.2.1 (UTC 2008-12-04) Audio #1 ID : 1 Format : AC-3 Format/Info : Audio Coding 3 Mode extension : CM (complete main) Codec ID : 2000 Duration : 45mn 32s Bit rate mode : Constant Bit rate : 192 Kbps Channel(s) : 2 channels Channel positions : Front: L R Sampling rate : 48.0 KHz Bit depth : 16 bits Stream size : 62.6 MiB (10%) Alignment : Split accross interleaves Interleave, duration : 40 ms (1.00 video frame) Interleave, preload duration : 500 ms

Скриншоты



_________________
Показать сообщения:    

Текущее время: Сегодня 15:50

Часовой пояс: GMT



Вы не можете начинать темы
Вы не можете отвечать на сообщения
Вы не можете редактировать свои сообщения
Вы не можете удалять свои сообщения
Вы не можете голосовать в опросах
Вы не можете прикреплять файлы к сообщениям
Вы не можете скачивать файлы