Важное объявление!
У Нас Все раздачи мультитрекерные, при нуле пиров в релизах, можете смело вставать на закачку!
 
Автор Сообщение

HUNTER

Стаж:
4 года 4 месяца
Сообщений:
56829

Репутация: 101

[+] [-]
Вне форума [Профиль] [ЛС]

BBC. Уникальные способности животных / Super Senses: The Secret Power of Animals
Дата/Год выпуска: 2014
Страна: Великобритания, British Broadcasting Corporation (BBC)
Жанр: Документальный, природа, животные
Продолжительность: 3 x ~ 00:43:41
Перевод: Профессиональный (одноголосый закадровый)
Русские субтитры: нет
Оригинальная аудиодорожка: нет
Режиссер: Хелен Черски / Helen Czerski, Тристан Гаттридж / Tristan Guttridge
Описание: Органы чувств человека невероятны, но мы способны видеть, слышать и обонять лишь малую толику из того, что в действительности нас окружает. От нас скрыт целый мир, который доступен нашим братьям меньшим на всей планете. В этом трёхсерийном фильме мы попытаемся выйти за пределы человеческого восприятия, чтобы исследовать необычный и удивительный мир чувств животных.
Содержание
01. Зрение / Sight
02. Слух / Sound
03. Обоняние / Scent
Семпл:http://sendfile.su/1131465
качество: SATRip
формат: AVI
Видео: Xvid 720x400 25fps 1 741 Kbps
Аудио: AC3 48000Hz stereo 160kbps

MediaInfo

C:\Users\Dmitriy\Documents\BBC. Уникальные способности животных.2014.XviD.SATRip\01. Зрение.avi General Complete name : C:\Users\Dmitriy\Documents\BBC. Уникальные способности животных.2014.XviD.SATRip\01. Зрение.avi Format : AVI Format/Info : Audio Video Interleave File size : 636 MiB Duration : 46mn 33s Overall bit rate : 1 911 Kbps Director : SATRip by Thunder Writing application : VirtualDubMod 1.5.10.3 | www.virtualdub-fr.org || (build 2550/release) Original source form/Name : Documentary Video #0 ID : 0 Format : MPEG-4 Visual Format profile : Advanced Simple@L5 Format settings, BVOP : Yes Format settings, QPel : No Format settings, GMC : No warppoints Format settings, Matrix : Default (H.263) Codec ID : XVID Codec ID/Hint : XviD Duration : 46mn 33s Bit rate : 1 741 Kbps Width : 720 pixels Height : 400 pixels Display aspect ratio : 16:9 Frame rate : 25.000 fps Color space : YUV Chroma subsampling : 4:2:0 Bit depth : 8 bits Scan type : Progressive Bits/(Pixel*Frame) : 0.242 Stream size : 580 MiB (91%) Writing library : XviD 1.2.1 (UTC 2008-12-04) Audio #1 ID : 1 Format : AC-3 Format/Info : Audio Coding 3 Mode extension : CM (complete main) Codec ID : 2000 Duration : 46mn 33s Bit rate mode : Constant Bit rate : 160 Kbps Channel(s) : 2 channels Channel positions : Front: L R Sampling rate : 48.0 KHz Bit depth : 16 bits Stream size : 53.3 MiB (8%) Alignment : Split accross interleaves Interleave, duration : 40 ms (1.00 video frame) Interleave, preload duration : 500 ms

Скриншоты



_________________
Показать сообщения:    

Текущее время: Сегодня 12:47

Часовой пояс: GMT



Вы не можете начинать темы
Вы не можете отвечать на сообщения
Вы не можете редактировать свои сообщения
Вы не можете удалять свои сообщения
Вы не можете голосовать в опросах
Вы не можете прикреплять файлы к сообщениям
Вы не можете скачивать файлы