Важное объявление!
У Нас Все раздачи мультитрекерные, при нуле пиров в релизах, можете смело вставать на закачку!
 
Автор Сообщение

HUNTER

Стаж:
4 года 4 месяца
Сообщений:
56829

Репутация: 101

[+] [-]
Вне форума [Профиль] [ЛС]

BBC. Таинственный мир гормонов / The Fantastical World of Hormones with Professor John Wass
Дата/Год выпуска: 2014
Страна: Великобритания, BBC
Жанр: Документальный, научно-познавательный
Продолжительность: 00:57:26
Перевод: Профессиональный (дублированный)
Русские субтитры: нет
Оригинальная аудиодорожка: нет
Режиссер: Джеймс Сенди / James Sandy
Описание: Гормоны формируют каждого из нас, влияя на все наши характеристики: рост, вес, предпочтения в еде, как мы будем расти и размножаться и даже как мы будем себя вести и чувствовать. Этот документальный фильм расскажет удивительную и странную историю того, как были обнаружены гормоны.
Семпл:http://sendfile.su/1111805
качество: SATRip
формат: AVI
Видео: Xvid 720x400 25fps 1 750 Kbps
Аудио: AC3 48000Hz stereo 192kbps

MediaInfo

H:\Документальные фильмы\BBC. Таинственный мир гормонов.2014.XviD.SATRip.avi General Complete name : H:\Документальные фильмы\BBC. Таинственный мир гормонов.2014.XviD.SATRip.avi Format : AVI Format/Info : Audio Video Interleave File size : 802 MiB Duration : 57mn 25s Overall bit rate : 1 952 Kbps Movie name : The Fantastical World of Hormones with Professor John Wass Director : SATRip by Thunder Writing application : VirtualDubMod 1.5.10.3 | www.virtualdub-fr.org || (build 2550/release) Original source form/Name : Documentary Video #0 ID : 0 Format : MPEG-4 Visual Format profile : Advanced Simple@L5 Format settings, BVOP : Yes Format settings, QPel : No Format settings, GMC : No warppoints Format settings, Matrix : Default (H.263) Codec ID : XVID Codec ID/Hint : XviD Duration : 57mn 25s Bit rate : 1 750 Kbps Width : 720 pixels Height : 400 pixels Display aspect ratio : 16:9 Frame rate : 25.000 fps Color space : YUV Chroma subsampling : 4:2:0 Bit depth : 8 bits Scan type : Progressive Bits/(Pixel*Frame) : 0.243 Stream size : 719 MiB (90%) Writing library : XviD 1.2.1 (UTC 2008-12-04) Audio #1 ID : 1 Format : AC-3 Format/Info : Audio Coding 3 Mode extension : CM (complete main) Codec ID : 2000 Duration : 57mn 25s Bit rate mode : Constant Bit rate : 192 Kbps Channel(s) : 2 channels Channel positions : Front: L R Sampling rate : 48.0 KHz Bit depth : 16 bits Stream size : 78.9 MiB (10%) Alignment : Split accross interleaves Interleave, duration : 40 ms (1.00 video frame) Interleave, preload duration : 500 ms

Скриншоты



_________________
Показать сообщения:    

Текущее время: Сегодня 20:46

Часовой пояс: GMT



Вы не можете начинать темы
Вы не можете отвечать на сообщения
Вы не можете редактировать свои сообщения
Вы не можете удалять свои сообщения
Вы не можете голосовать в опросах
Вы не можете прикреплять файлы к сообщениям
Вы не можете скачивать файлы