Важное объявление!
У Нас Все раздачи мультитрекерные, при нуле пиров в релизах, можете смело вставать на закачку!
 
Автор Сообщение

HUNTER

Стаж:
4 года 4 месяца
Сообщений:
56765

Репутация: 101

[+] [-]
Вне форума [Профиль] [ЛС]

BBC. Рисуя карту мира (1 сезон:1-3 серии из 3) / Mapping the World
Дата/Год выпуска: 2010
Страна: Великобритания, BBC
Жанр: Документальный, исследование, картография
Продолжительность: 3 х ~ 00:50:57
Перевод: Профессиональный (дублированный)
Русские субтитры: нет
Оригинальная аудиодорожка: нет
Режиссер: Рози Шелленберг / Rosie Schellenberg
Описание: В 3 серийном документальном сериале о необыкновенных историях карт, профессор Джерри Броттон раскрывает сущность карт не просто как источников картографической информации, но и как инструментов политической власти и пропаганды. Британский ученый Джерри Броттон с помощью географическич карт поведает нам о страхах и предрассудках разных времен: религиозных страстях, вдохновленных средневековыми картами мира, указывающими путь в рай, паломнических маршрутах в Иерусалим и детях-чудовищах, пожирающих своих родителей. Он также расскажет о "Войне карт" 70-х годов уже нашего времени, когда журналист Арно Петерс заявил, что принятая на тот момент карта мира лживо сужала настоящие границы развивающихся стран. А еще Броттон покажет, как отображаются в цифровых картах современные социальные проблемы, такие, как детская смертность.
Семпл: http://sendfile.su/1105770
качество: SATRip
формат: AVI
Видео: Xvid 720x400 25fps 1 747 Kbps
Аудио: AC3 48000Hz stereo 192kbps

Список выпусков/серий

01. Окна мира / Windows on the World
02. Дух времени / Spirit of the Age
03. Территориальные споры / Mapping the World

MediaInfo

H:\Фильмы XviD NEW\Рисуя карту мира.2010.XviD.SATRip\01. Окна мира.avi General Complete name : H:\Фильмы XviD NEW\Рисуя карту мира.2010.XviD.SATRip\01. Окна мира.avi Format : AVI Format/Info : Audio Video Interleave File size : 710 MiB Duration : 50mn 57s Overall bit rate : 1 949 Kbps Movie name : 01. Windows on the World Director : SATRip by Thunder Writing application : VirtualDubMod 1.5.10.3 | www.virtualdub-fr.org || (build 2550/release) Original source form/Name : Documentary Video #0 ID : 0 Format : MPEG-4 Visual Format profile : Advanced Simple@L5 Format settings, BVOP : Yes Format settings, QPel : No Format settings, GMC : No warppoints Format settings, Matrix : Default (H.263) Codec ID : XVID Codec ID/Hint : XviD Duration : 50mn 57s Bit rate : 1 747 Kbps Width : 720 pixels Height : 400 pixels Display aspect ratio : 16:9 Frame rate : 25.000 fps Color space : YUV Chroma subsampling : 4:2:0 Bit depth : 8 bits Scan type : Progressive Bits/(Pixel*Frame) : 0.243 Stream size : 637 MiB (90%) Writing library : XviD 1.2.1 (UTC 2008-12-04) Audio #1 ID : 1 Format : AC-3 Format/Info : Audio Coding 3 Mode extension : CM (complete main) Codec ID : 2000 Duration : 50mn 57s Bit rate mode : Constant Bit rate : 192 Kbps Channel(s) : 2 channels Channel positions : Front: L R Sampling rate : 48.0 KHz Bit depth : 16 bits Stream size : 70.0 MiB (10%) Alignment : Split accross interleaves Interleave, duration : 40 ms (1.00 video frame) Interleave, preload duration : 500 ms

Скриншоты



_________________
Показать сообщения:    

Текущее время: Сегодня 03:58

Часовой пояс: GMT



Вы не можете начинать темы
Вы не можете отвечать на сообщения
Вы не можете редактировать свои сообщения
Вы не можете удалять свои сообщения
Вы не можете голосовать в опросах
Вы не можете прикреплять файлы к сообщениям
Вы не можете скачивать файлы