Важное объявление!
У Нас Все раздачи мультитрекерные, при нуле пиров в релизах, можете смело вставать на закачку!
 
Автор Сообщение

HUNTER

Стаж:
4 года 4 месяца
Сообщений:
56765

Репутация: 101

[+] [-]
Вне форума [Профиль] [ЛС]

Почему мы толстеем? / BBC. Why Are We Getting So Fat?
Дата/Год выпуска: 2016
Страна: Великобритания
Жанр: документальный
Продолжительность: 0:49:45
Перевод: Профессиональный (дублированный)
Доп. инфо о переводе: канал Наука 2.0
Русские субтитры: нет
Оригинальная аудиодорожка: нет
Режиссер: Dr Giles Yeo / Джайлз Йео
Телеканал: BBC
Описание: Мы живем в разгар эпидемии ожирения. Например, более 60% взрослых людей Великобритании классифицируются как страдающие им. И эта цифра растет. Действительно ли эта проблема решается диетой и физическими нагрузками? Ученый-генетик из Кембриджа встретится с самыми большими людьми Британии, чтобы проверить это. От редких генетических мутаций до злоупотребления высококалорийными продуктами - мы выясним, какие факторы играют решающую роль в проблеме увеличения веса.
Сэмпл: https://yadi.sk/i/CXtfOjmrvoRzS
качество: SATRip
формат: MP4
Видео: AVC, 704x396, 16:9, 1356 Кбит/сек, 29,970 кадров/сек
Аудио: AAC, 192 Кбит/сек, 2 канала

MediaInfo

Формат : MPEG-4Профиль формата : Base Media / Version 2Идентификатор кодека : mp42 (mp42/isom)Размер файла : 553 МбайтПродолжительность : 49 м. 45 с.Режим общего битрейта : ПеременныйОбщий поток : 1553 Кбит/секДата кодирования : UTC 2016-09-23 16:19:42Дата пометки : UTC 2016-09-23 16:19:42
ВидеоИдентификатор : 2Формат : AVCФормат/Информация : Advanced Video CodecПрофиль формата : Main@L3Параметр CABAC формата : ДаПараметр ReFrames формата : 3 кадраИдентификатор кодека : avc1Идентификатор кодека/Информация : Advanced Video CodingПродолжительность : 49 м. 45 с.Вид битрейта : ПеременныйБитрейт : 1356 Кбит/секМаксимальный битрейт : 2000 Кбит/секШирина : 704 пикселяВысота : 396 пикселейСоотношение сторон : 16:9Режим частоты кадров : ПостоянныйЧастота кадров : 29,970 (30000/1001) кадров/секСтандарт вещания : NTSCЦветовое пространство : YUVСубдискретизация насыщенности : 4:2:0Битовая глубина : 8 битТип развёртки : ПрогрессивнаяБит/(Пиксели*Кадры) : 0.162Размер потока : 483 Мбайт (87%)Язык : EnglishДата кодирования : UTC 2016-09-23 16:19:42Дата пометки : UTC 2016-09-23 16:19:42Цветовой диапазон : Limited
АудиоИдентификатор : 1Формат : AACФормат/Информация : Advanced Audio CodecПрофиль формата : LCИдентификатор кодека : 40Продолжительность : 49 м. 45 с.Вид битрейта : ПостоянныйБитрейт : 192 Кбит/секКаналы : channel0Channel(s)_Original : 2 каналаРасположение каналов : Front: L RЧастота : 48,0 КГцЧастота кадров : 46,875 кадров/сек (1024 spf)Метод сжатия : С потерямиРазмер потока : 68,4 Мбайт (12%)Язык : EnglishДата кодирования : UTC 2016-09-23 16:19:42Дата пометки : UTC 2016-09-23 16:19:42

Скриншоты


_________________
Показать сообщения:    

Текущее время: Сегодня 06:08

Часовой пояс: GMT



Вы не можете начинать темы
Вы не можете отвечать на сообщения
Вы не можете редактировать свои сообщения
Вы не можете удалять свои сообщения
Вы не можете голосовать в опросах
Вы не можете прикреплять файлы к сообщениям
Вы не можете скачивать файлы