Важное объявление!
У Нас Все раздачи мультитрекерные, при нуле пиров в релизах, можете смело вставать на закачку!
 
Автор Сообщение

HUNTER

Стаж:
4 года 4 месяца
Сообщений:
56822

Репутация: 101

[+] [-]
Вне форума [Профиль] [ЛС]

BBC: История животного мира с Дэвидом Аттенборо / Rise of Animals: Triumph of the Vertebrates____________________________________________________________________________________________________________
Год выпуска: 2013
Страна: Великобритания, BBC, Atlantic Productions
Жанр: Документальный, палеонтология, научно-популярный
Продолжительность: 2 x ~ 00:44:36
Перевод: Профессиональный (одноголосый закадровый)
Русские субтитры: нет
Оригинальная аудиодорожка: нет
Телеканал: BBC
Описание: Дэвид Аттенборо отправляется в эпическое путешествие длиной 500 миллионов лет и исследует невероятный скачок в развитии позвоночных, породивший самых крупных, быстрых и умных существ, когда-либо живших на планете. Сначала он отправляется в Китай, страну, в которой он давно мечтал побывать, чтобы больше узнать о животных древности. Именно они считаются ключевыми недостающими звеньями в цепи нашей эволюции.
Качество видео: HDRip [сэмпл]
Видеокодек: XviD
Аудиокодек: AC3
Видео:720x400 (1.80:1), 25 fps, XviD build 73, 1449 kbps avg, 0.20 bit/pixel
Аудио: 48 kHz, AC3 Dolby Digital, 2/0 (L,R) ch, 192 kbps
Релиз подготовлен релиз группой: GeneralFilm. Rip by vsobbol
Исходник: skorpionN
Видеоряд подогнан под русскую аудидорожку из SatRip

Список и описание серий
01. Из моря в небо / From the Seas to the Skies
С помощью новых открытий палеонтологии Дэвид Аттенборо исследует удивительную главу истории развития жизни на Земле - возникновение позвоночных.02. Эра млекопитающих / Dawn of the Mammals
Эта серия посвящена истории млекопитающих, от возникновения первых видов до стремительного роста их разнообразия и господства на планете.
СкриншотыMediaInfo
1
Общее
Полное имя : D:\Istorija.zhivotnogo.mira.HDRip\01.Istorija.zhivotnogo.mira.XviD.HDRip.by.GeneralFilm.avi
Формат : AVI
Формат/Информация : Audio Video Interleave
Размер файла : 527 Мбайт
Продолжительность : 44 м.
Общий поток : 1651 Кбит/сек
Программа кодирования : VirtualDubMod 1.5.10.3 | www.virtualdub-fr.org || (build 2550/release)
Библиотека кодирования : VirtualDubMod build 2550/release
Видео
Идентификатор : 0
Формат : MPEG-4 Visual
Профиль формата : Advanced Simple@L5
Параметр BVOP формата : 1
Параметр QPel формата : Нет
Параметр GMC формата : Без точки перехода
Параметр матрицы формата : Default (H.263)
Идентификатор кодека : XVID
Идентификатор кодека/Подсказка : XviD
Продолжительность : 44 м.
Битрейт : 1450 Кбит/сек
Ширина : 720 пикселей
Высота : 400 пикселей
Соотношение сторон : 16:9
Частота кадров : 25,000 кадров/сек
Цветовое пространство : YUV
Субдискретизация насыщенности : 4:2:0
Битовая глубина : 8 бит
Тип развёртки : Прогрессивная
Метод сжатия : С потерями
Бит/(Пиксели*Кадры) : 0.201
Размер потока : 463 Мбайт (88%)
Библиотека кодирования : XviD 73
Аудио
Идентификатор : 1
Формат : AC-3
Формат/Информация : Audio Coding 3
Расширение режима : CM (complete main)
Параметр Endianness формата : Big
Идентификатор кодека : 2000
Продолжительность : 44 м.
Вид битрейта : Постоянный
Битрейт : 192 Кбит/сек
Каналы : 2 канала
Расположение каналов : Front: L R
Частота : 48,0 КГц
Битовая глубина : 16 бит
Метод сжатия : С потерями
Задержка видео : 10 мс.
Размер потока : 61,3 Мбайт (12%)
Выравнивание : Разделение по промежуткам
Продолжительность промежутка : 40 мс. (1,00 видеокадр)
Время предзагрузки промежутка : 500 мс.
2
Общее
Полное имя : D:\Istorija.zhivotnogo.mira.HDRip\02.Istorija.zhivotnogo.mira.XviD.HDRip.by.GeneralFilm.avi
Формат : AVI
Формат/Информация : Audio Video Interleave
Размер файла : 527 Мбайт
Продолжительность : 44 м.
Общий поток : 1651 Кбит/сек
Программа кодирования : VirtualDubMod 1.5.10.3 | www.virtualdub-fr.org || (build 2550/release)
Библиотека кодирования : VirtualDubMod build 2550/release
Видео
Идентификатор : 0
Формат : MPEG-4 Visual
Профиль формата : Advanced Simple@L5
Параметр BVOP формата : 1
Параметр QPel формата : Нет
Параметр GMC формата : Без точки перехода
Параметр матрицы формата : Default (H.263)
Идентификатор кодека : XVID
Идентификатор кодека/Подсказка : XviD
Продолжительность : 44 м.
Битрейт : 1450 Кбит/сек
Ширина : 720 пикселей
Высота : 400 пикселей
Соотношение сторон : 16:9
Частота кадров : 25,000 кадров/сек
Цветовое пространство : YUV
Субдискретизация насыщенности : 4:2:0
Битовая глубина : 8 бит
Тип развёртки : Прогрессивная
Метод сжатия : С потерями
Бит/(Пиксели*Кадры) : 0.201
Размер потока : 463 Мбайт (88%)
Библиотека кодирования : XviD 73
Аудио
Идентификатор : 1
Формат : AC-3
Формат/Информация : Audio Coding 3
Расширение режима : CM (complete main)
Параметр Endianness формата : Big
Идентификатор кодека : 2000
Продолжительность : 44 м.
Вид битрейта : Постоянный
Битрейт : 192 Кбит/сек
Каналы : 2 канала
Расположение каналов : Front: L R
Частота : 48,0 КГц
Битовая глубина : 16 бит
Метод сжатия : С потерями
Размер потока : 61,3 Мбайт (12%)
Выравнивание : Разделение по промежуткам
Продолжительность промежутка : 40 мс. (1,00 видеокадр)
Время предзагрузки промежутка : 500 мс.

_________________
Показать сообщения:    

Текущее время: Сегодня 22:19

Часовой пояс: GMT



Вы не можете начинать темы
Вы не можете отвечать на сообщения
Вы не можете редактировать свои сообщения
Вы не можете удалять свои сообщения
Вы не можете голосовать в опросах
Вы не можете прикреплять файлы к сообщениям
Вы не можете скачивать файлы