Важное объявление!
У Нас Все раздачи мультитрекерные, при нуле пиров в релизах, можете смело вставать на закачку!
 
Автор Сообщение

HUNTER

Стаж:
4 года 4 месяца
Сообщений:
56822

Репутация: 101

[+] [-]
Вне форума [Профиль] [ЛС]

BBC: Земля - Картина нашей планеты / Tierra - La Pelicula de Nuestro Planeta / Earth 8.56 / 8.00-
Год выпуска: 2007
Страна: Великобритания, Германия, США
Жанр: Документальный
Продолжительность: 01:39:09
Перевод: Любитедьский (одноголосый закадровый)
Русские субтитры: нет-Режиссер: Аластер Фовергилл, Марк Линфилд / Alastair Fothergill, Mark Linfield-Описание: В фильме «Земля» вас ждёт грандиозный, захватывающий рассказ о самых крупных и бесстрашных живых существах.- -Качество: BDRip
Формат: AVI
Видео: 720x400 (16:9), 23.976 fps, XviD build 65 ~1689 kbps avg, 0.24 bit/pixel
Аудио# 1: Russian| 48.0 kHz, AC3 Dolby Digital, 2/0 (L,R) ch, ~192.00 kbps avg
Аудио# 2: English | 48.0 kHz, AC3 Dolby Digital, 2/0 (L,R) ch, ~192.00 kbps avg

MediaInfo

ОбщееПолное имя : A:\Фильмы\Earth.2007.BDRip.aviФормат : AVIФормат/Информация : Audio Video InterleaveРазмер файла : 1,45 ГбайтПродолжительность : 1 ч. 39 м.Общий поток : 2087 Кбит/секНазвание фильма : Earth.2007.BDRipРежиссёр : rip by maygliПрограмма кодирования : VirtualDubModRus 1.5.10.2 (build 2542/release)Правообладатель : www.starbit.org (RG Rulya74)
ВидеоИдентификатор : 0Формат : MPEG-4 VisualПрофиль формата : Advanced Simple@L5Параметр BVOP формата : 1Параметр QPel формата : НетПараметр GMC формата : Без точки переходаПараметр матрицы формата : ВыборочнаяРежим смешивания : Сжатый битовый потокИдентификатор кодека : XVIDИдентификатор кодека/Подсказка : XviDПродолжительность : 1 ч. 39 м.Битрейт : 1689 Кбит/секШирина : 720 пикселейВысота : 400 пикселейСоотношение сторон : 16:9Частота кадров : 23,976 кадра/секЦветовое пространство : YUVСубдискретизация насыщенности : 4:2:0Битовая глубина : 8 битТип развёртки : ПрогрессивнаяМетод сжатия : С потерямиБит/(Пиксели*Кадры) : 0.245Размер потока : 1,17 Гбайт (81%)Библиотека кодирования : XviD 65
Аудио #1Идентификатор : 1Формат : AC-3Формат/Информация : Audio Coding 3Расширение режима : CM (complete main)Параметр Endianness формата : BigИдентификатор кодека : 2000Продолжительность : 1 ч. 39 м.Вид битрейта : ПостоянныйБитрейт : 192 Кбит/секКаналы : 2 каналаРасположение каналов : Front: L RЧастота : 48,0 КГцБитовая глубина : 16 битМетод сжатия : С потерямиРазмер потока : 136 Мбайт (9%)Выравнивание : Разделение по промежуткамПродолжительность промежутка : 42 мс. (1,00 видеокадр)Время предзагрузки промежутка : 500 мс.Заголовок : Любительский (одноголосый закадровый)
Аудио #2Идентификатор : 2Формат : AC-3Формат/Информация : Audio Coding 3Расширение режима : CM (complete main)Параметр Endianness формата : BigИдентификатор кодека : 2000Продолжительность : 1 ч. 39 м.Вид битрейта : ПостоянныйБитрейт : 192 Кбит/секКаналы : 2 каналаРасположение каналов : Front: L RЧастота : 48,0 КГцБитовая глубина : 16 битМетод сжатия : С потерямиРазмер потока : 136 Мбайт (9%)Выравнивание : Разделение по промежуткамПродолжительность промежутка : 42 мс. (1,00 видеокадр)Время предзагрузки промежутка : 500 мс.Заголовок : Оригинал (Английский)

Скриншоты



_________________
Показать сообщения:    

Текущее время: Сегодня 05:06

Часовой пояс: GMT



Вы не можете начинать темы
Вы не можете отвечать на сообщения
Вы не можете редактировать свои сообщения
Вы не можете удалять свои сообщения
Вы не можете голосовать в опросах
Вы не можете прикреплять файлы к сообщениям
Вы не можете скачивать файлы