Важное объявление!
У Нас Все раздачи мультитрекерные, при нуле пиров в релизах, можете смело вставать на закачку!
 
Автор Сообщение

HUNTER

Стаж:
4 года 4 месяца
Сообщений:
56733

Репутация: 101

[+] [-]
Вне форума [Профиль] [ЛС]

BBC: Захватывающая история криминалистики / BBC: Catching History's Criminals: The Forensics Story
Год выпуска: 2015
Страна: Великобритания
Студия: BBC Scotland, Open University Partnership
Жанр: Документальный, история, криминалистика
Продолжительность: 3 х ~ 00:52:06
Перевод: Профессиональный (дублированный)
Доп. инфо о переводе: SDI Media
Русские субтитры: нет
Режиссер: Грэхам Рассел / Graham Russell
Описание: Удивительный мир криминалистики оказывается под микроскопом доктора Габриэлы Вестон, которая решает изучить историю науки, стоящей за борьбой с преступностью. От использования ДНК для реконструкции лица убийцы до волосинки, рассказывающей о том, где жила жертва. Благодаря современным технологиям и историческим материалам, мы увидим полицейские дела и узнаем о культуре, истории и о развитии технологий тех далёких времён. Неважно, анализ отпечатков пальцев, тканей, изучение пистолетов или ядов, всё это - захватывающая история криминалистики.
Тип релиза: HDTVRip
Контейнер: AVI
Видео: 720x400 (1.80:1), 25 fps, XviD build 50 ~1791 kbps avg, 0.25 bit/pixel
Аудио: 48 kHz, AC3 Dolby Digital, 2/0 (L,R) ch, ~192 kbps

Перевод

Документальный дубляж "SDI Media":
Голос рассказчика - полный дубляж
Интервью - слышна оригинальная речь
Перевод Н. Малашонок, текст читает Виктория Бабанова

Автор рипа

Исходник: skorpionN
Рип: Musicant
Документальный дубляж "SDI Media":
Голос рассказчика - полный дубляж
Интервью - слышна оригинальная речь
Перевод Н. Малашонок, текст читает Виктория Бабанова

Содержание

01. Вопрос идентификации / A Question of Identity
Первый эпизод рассказывает о трудностях идентификации тела в делах об убийствах. Вопрос идентичности является решающим в самом начале расследования. От обугленных костей тела до полностью растворённого в кислоте. В каждом новом ужасающем случае науке пришлось адаптироваться, чтобы идентифицировать и жертву, и убийцу. Исследуя четыре прорывных случая, Габриэла раскрывает научные инновации, которые склонили чашу весов правосудия в пользу детектива - и поймала убийц.
02. Доказательства вины / Traces of Guilt
Кровь, волосы, ткань - они обычно указывают даже на самого осторожного убийцу. Посмотрите, как почва на обуви подозреваемого помогла раскрыть одно из самых шокирующих преступлений в истории
03. Орудия убийства / Instruments of Murder
Большинство убийц всегда убивает с помощью чего-то. Первостепенная задача детективов - найти орудие убийства, оно может не только вывести их на убийцу, но ещё много чего рассказать.

MediaInfo

eneralComplete name : D:\Загрузки\Захватывающая история криминалистики HDTVRip by ExKinoRay\01_A Question of Identity.aviFormat : AVIFormat/Info : Audio Video InterleaveFile size : 743 MiBDuration : 52mn 4sOverall bit rate : 1 994 KbpsWriting application : VirtualDubMod 1.5.10.3 | www.virtualdub-fr.org || (build 2550/release)Writing library : VirtualDubMod build 2550/release
VideoID : 0Format : MPEG-4 VisualFormat profile : Advanced Simple@L5Format settings, BVOP : 2Format settings, QPel : NoFormat settings, GMC : No warppointsFormat settings, Matrix : Default (H.263)Codec ID : XVIDCodec ID/Hint : XviDDuration : 52mn 4sBit rate : 1 792 KbpsWidth : 720 pixelsHeight : 400 pixelsDisplay aspect ratio : 16:9Frame rate : 25.000 fpsColor space : YUVChroma subsampling : 4:2:0Bit depth : 8 bitsScan type : ProgressiveCompression mode : LossyBits/(Pixel*Frame) : 0.249Stream size : 667 MiB (90%)Writing library : XviD 1.2.1 (UTC 2008-12-04)
AudioID : 1Format : AC-3Format/Info : Audio Coding 3Mode extension : CM (complete main)Format settings, Endianness : BigCodec ID : 2000Duration : 52mn 4sBit rate mode : ConstantBit rate : 192 KbpsChannel(s) : 2 channelsChannel positions : Front: L RSampling rate : 48.0 KHzFrame rate : 31.250 fps (1536 spf)Compression mode : LossyStream size : 71.5 MiB (10%)Alignment : Split accross interleavesInterleave, duration : 40 ms (1.00 video frame)Interleave, preload duratio : 500 ms

Скриншоты


_________________
Показать сообщения:    

Текущее время: Сегодня 05:22

Часовой пояс: GMT



Вы не можете начинать темы
Вы не можете отвечать на сообщения
Вы не можете редактировать свои сообщения
Вы не можете удалять свои сообщения
Вы не можете голосовать в опросах
Вы не можете прикреплять файлы к сообщениям
Вы не можете скачивать файлы