Важное объявление!
У Нас Все раздачи мультитрекерные, при нуле пиров в релизах, можете смело вставать на закачку!
 
Автор Сообщение

HUNTER

Стаж:
4 года 4 месяца
Сообщений:
56722

Репутация: 101

[+] [-]
Вне форума [Профиль] [ЛС]

BBC: Загадочные кошки / The Cat Connection-Год выпуска 2002
Страна: Великобритания
Жанр: Документальный
Продолжительность: 00:48:31
Перевод: Профессиональный (двухголосый)
Субтитры: Нет-Режиссёр: Ивонн Эллис / Yvonne Ellis -Описание:
Кошки — пожалуй, наиболее распространённые домашние животные на нашей планете. Они живут во многих домах Англии, США, России и, конечно же, Египта, где кошка с незапамятных времен считается священным животным.
Однако мы настолько привыкли к этим созданиям, что не отдаём отчёта в том, что кошки на протяжении миллионов лет эволюционировали в идеальных хищников. Как же вышло, что эти гордые, свободолюбивые и достаточно опасные животные так прижились среди людей?
Можно объехать весь земной шар, чтобы убедиться, что практически в каждом уголке живут и дикие, и домашние представители этой породы. Новый фильм ВВС посвящён обеим сторонам кошачьей жизни. Ведь каждая кошка, будучи милым, ласковым, общительным и игривым комком шерсти и любимцем семьи, тем не менее, ни на миг не забывает своих хищных повадок и в любой момент способна превратиться в бесстрашного охотника и показать свою настоящую дикую сущность.
-Качество: DVDRip-AVC
Формат: MKV
Видео кодек: MPEG4 AVC
Аудио кодек: AC-3
Видео: MPEG4 AVC 768 x 576 (4:3), 25.000 fps, 1700 Кбит/сек
Аудио: AC-3, 2 ch, 256 Кбит/сек, 48KHz -

Скриншоты

MediaInfo:

Общее
Уникальный идентификатор : 247181938626848352674475784170142547461 (0xB9F5827DC0595012B58643248461BE05)
Полное имя :BBC- Загадочные кошки_2002_DVDRip-AVC.mkv
Формат : Matroska
Версия формата : Version 2
Размер файла : 679 Мбайт
Продолжительность : 48 м.
Общий поток : 1957 Кбит/сек
Дата кодирования : UTC 2013-06-29 22:55:48
Программа кодирования : mkvmerge v6.1.0 ('Old Devil') built on Mar 4 2013 09:10:42
Библиотека кодирования : libebml v1.3.0 + libmatroska v1.4.0
Видео
Идентификатор : 1
Формат : AVC
Формат/Информация : Advanced Video Codec
Профиль формата : [url=mailto:High@L4.1]High@L4.1[/url]
Параметр CABAC формата : Да
Параметр ReFrames формата : 5 кадров
Идентификатор кодека : V_MPEG4/ISO/AVC
Продолжительность : 48 м.
Битрейт : 1700 Кбит/сек
Ширина : 768 пикселей
Высота : 576 пикселей
Соотношение сторон : 4:3
Режим частоты кадров : Постоянный
Частота кадров : 25,000 кадров/сек
Цветовое пространство : YUV
Субдискретизация насыщенности : 4:2:0
Битовая глубина : 8 бит
Тип развёртки : Прогрессивная
Бит/(Пиксели*Кадры) : 0.154
Размер потока : 577 Мбайт (85%)
Библиотека кодирования : x264 core 130 r2273 b3065e6
Настройки программы : cabac=1 / ref=5 / deblock=1:-2:-2 / analyse=0x3:0x111 / me=umh / subme=9 / psy=1 / psy_rd=0.00:0.10 / mixed_ref=1 / me_range=32 / chroma_me=1 / trellis=2 / 8x8dct=1 / cqm=0 / deadzone=21,11 / fast_pskip=1 / chroma_qp_offset=-1 / threads=12 / lookahead_threads=1 / sliced_threads=0 / nr=0 / decimate=1 / interlaced=0 / bluray_compat=0 / constrained_intra=0 / bframes=5 / b_pyramid=2 / b_adapt=0 / b_bias=0 / direct=1 / weightb=1 / open_gop=0 / weightp=2 / keyint=250 / keyint_min=25 / scenecut=40 / intra_refresh=0 / rc_lookahead=50 / rc=2pass / mbtree=1 / bitrate=1700 / ratetol=1.0 / qcomp=0.60 / qpmin=0 / qpmax=69 / qpstep=4 / cplxblur=20.0 / qblur=0.5 / ip_ratio=1.40 / aq=1:1.00
Default : Да
Forced : Нет
Аудио
Идентификатор : 2
Формат : AC-3
Формат/Информация : Audio Coding 3
Расширение режима : CM (complete main)
Параметр Endianness формата : Big
Идентификатор кодека : A_AC3
Продолжительность : 48 м.
Вид битрейта : Постоянный
Битрейт : 256 Кбит/сек
Каналы : 2 канала
Расположение каналов : Front: L R
Частота : 48,0 КГц
Битовая глубина : 16 бит
Метод сжатия : С потерями
Размер потока : 88,9 Мбайт (13%)
Default : Да
Forced : Нет

Рейтинг


_________________
Показать сообщения:    

Текущее время: Сегодня 10:02

Часовой пояс: GMT



Вы не можете начинать темы
Вы не можете отвечать на сообщения
Вы не можете редактировать свои сообщения
Вы не можете удалять свои сообщения
Вы не можете голосовать в опросах
Вы не можете прикреплять файлы к сообщениям
Вы не можете скачивать файлы