Важное объявление!
У Нас Все раздачи мультитрекерные, при нуле пиров в релизах, можете смело вставать на закачку!
 
Автор Сообщение

HUNTER

Стаж:
4 года 4 месяца
Сообщений:
56829

Репутация: 101

[+] [-]
Вне форума [Профиль] [ЛС]

BBC: Жизнь / BBC: Life
Год выпуска: 2009
Страна: Великобритания, Греция
Жанр: Документальный ТВ-сериал
Продолжительность: ~00:49:00 (1 серия)
Перевод: Субтитры
Русские субтитры: есть
Формат субтитров: hardsub (неотключаемые)
Оригинальная аудиодорожка: английский
Режиссер: Саймон Блэкни / Simon Blakeney, Стефен Лайл / Stephen Lyle
Телеканал: Аруц 8 (Израиль)
Описание: Ошеломляющий и поражающий своей красотой, новыми открытиями и впечатлениями уникальный сериал о живой природе нашей планеты. Более 3000 съемочных дней, проведенных на каждом из земных континентов, беспрецедентная техника съемки, 130 невероятных и захватывающих дух историй из страниц животного мира, — все это и есть «Жизнь» — история животного мира, какой Вы её еще не видели прежде!
Релиз группы:
Доп. информация: Запись с канала "Аруц 8". Фильмы на английском языке с двойными субтитрами (вшитыми) на русском языке и иврите. Перевод: Алла Теплицкая (1,4,5), Ави Тамаркин (2,3), Виталий Заиченко (6). Субтитры: Дори Медиа от ЛТД.
Cэмпл: https://yadi.sk/i/jrATQ8lWheBKp
качество: TVRip
формат: AVI
Видео: 1795 Кbps, 704х432 (1.630), 25.000 fps, MPEG-4 Visual (XviD)(Advanced Simple@L5)(BVOP2)
Аудио: 128 Kbps,48.0 KHz, 2 сhannels, MPEG Audio (MP3) (Version 1)(Layer 3)(Joint stereo/MS Stereo)

Список серий

01. Challenges of Life / Испытания жизни
02. Reptiles and Amphibians / Рептилии и амфибии
03. Mammals / Млекопитающие
04. Fish / Рыбы
05. Birds / Птицы
06. Insects / Насекомые

MediaInfo

GeneralComplete name : D:\BBC Life\01-Challenges of Life.aviFormat : AVIFormat/Info : Audio Video InterleaveFile size : 672 MiBDuration : 48mn 36sOverall bit rate : 1 933 KbpsWriting library : VirtualDub-MPEG2 build 24600/release
VideoID : 0Format : MPEG-4 VisualFormat profile : Advanced Simple@L5Format settings, BVOP : 2Format settings, QPel : NoFormat settings, GMC : No warppointsFormat settings, Matrix : Default (MPEG)Codec ID : XVIDCodec ID/Hint : XviDDuration : 48mn 36sBit rate : 1 795 KbpsWidth : 704 pixelsHeight : 432 pixelsDisplay aspect ratio : 1.630Frame rate : 25.000 fpsColor space : YUVChroma subsampling : 4:2:0Bit depth : 8 bitsScan type : ProgressiveCompression mode : LossyBits/(Pixel*Frame) : 0.236Stream size : 624 MiB (93%)Writing library : XviD 58
AudioID : 1Format : MPEG AudioFormat version : Version 1Format profile : Layer 3Mode : Joint stereoMode extension : MS StereoCodec ID : 55Codec ID/Hint : MP3Duration : 48mn 36sBit rate mode : ConstantBit rate : 128 KbpsChannel(s) : 2 channelsSampling rate : 48.0 KHzCompression mode : LossyStream size : 44.5 MiB (7%)Alignment : Split accross interleavesInterleave, duration : 40 ms (1.00 video frame)Interleave, preload duration : 500 ms

Скриншоты


_________________
Показать сообщения:    

Текущее время: Сегодня 19:53

Часовой пояс: GMT



Вы не можете начинать темы
Вы не можете отвечать на сообщения
Вы не можете редактировать свои сообщения
Вы не можете удалять свои сообщения
Вы не можете голосовать в опросах
Вы не можете прикреплять файлы к сообщениям
Вы не можете скачивать файлы