Важное объявление!
У Нас Все раздачи мультитрекерные, при нуле пиров в релизах, можете смело вставать на закачку!
 
Автор Сообщение

HUNTER

Стаж:
4 года 4 месяца
Сообщений:
56839

Репутация: 101

[+] [-]
Вне форума [Профиль] [ЛС]

BBC. Джимми Дохерти в Саду Дарвина / BBC. Jimmy Doherty in Darwin's Garden
Дата/Год выпуска: 2009
Страна: Великобритания, BBC
Жанр: Документальный, научно-познавательный
Продолжительность: 00:57:36
Перевод: Профессиональный (дублированный)
Доп. инфо о переводе: Видеофильм ТВ
Русские субтитры: нет
Оригинальная аудиодорожка: нет
Режиссер: Мет Барретт / Matt Barrett
Описание: "Происхождение видов путем естественного отбора, или Сохранение благоприятных рас в борьбе за жизнь" - труд английского естествоиспытателя Чарльза Дарвина, опубликованный 24 ноября 1859 года, являющийся одним из наиболее знаменитых трудов в истории науки и основополагающим в сфере эволюционного учения. В этом научном труде Дарвин представляет длинную цепочку аргументов в пользу своей теории. Согласно ей, группы организмов, называющиеся сегодня популяциями, постепенно развиваются благодаря естественному отбору. Именно в данном труде этот процесс был впервые представлен широкой общественности.
Сэмпл: http://sendfile.su/1031430
качество: SATRip
формат: AVI
Видео: Xvid, 720x400, 25fps, 1 699 Kbps
Аудио: AC3, 48000Hz, stereo, 192kbps

Список выпусков/серий

01. Dangerous Ideas

MediaInfo

J:\RIPY__________________\BBC. Джимми Дохерти в Саду Дарвина.(1.sezon).2009.XviD.SATRip\BBC. Джимми Дохерти в Саду Дарвина.(1.serija).2009.XviD.SATRip.avi General Complete name : J:\RIPY__________________\BBC. Джимми Дохерти в Саду Дарвина.(1.sezon).2009.XviD.SATRip\BBC. Джимми Дохерти в Саду Дарвина.(1.serija).2009.XviD.SATRip.avi Format : AVI Format/Info : Audio Video Interleave File size : 783 MiB Duration : 57mn 36s Overall bit rate : 1 900 Kbps Movie name : BBC. Jimmy Doherty in Darwin's Garden (1 sezon) Director : SATRip by Thunder Writing application : VirtualDubMod 1.5.10.3 | www.virtualdub-fr.org || (build 2550/release) Original source form/Name : Documentary Video #0 ID : 0 Format : MPEG-4 Visual Format profile : Advanced Simple@L5 Format settings, BVOP : Yes Format settings, QPel : No Format settings, GMC : No warppoints Format settings, Matrix : Default (H.263) Codec ID : XVID Codec ID/Hint : XviD Duration : 57mn 36s Bit rate : 1 699 Kbps Width : 720 pixels Height : 400 pixels Display aspect ratio : 16:9 Frame rate : 25.000 fps Color space : YUV Chroma subsampling : 4:2:0 Bit depth : 8 bits Scan type : Progressive Bits/(Pixel*Frame) : 0.236 Stream size : 700 MiB (89%) Writing library : XviD 1.2.1 (UTC 2008-12-04) Audio #1 ID : 1 Format : AC-3 Format/Info : Audio Coding 3 Mode extension : CM (complete main) Codec ID : 2000 Duration : 57mn 36s Bit rate mode : Constant Bit rate : 192 Kbps Channel(s) : 2 channels Channel positions : Front: L R Sampling rate : 48.0 KHz Bit depth : 16 bits Stream size : 79.1 MiB (10%) Alignment : Split accross interleaves Interleave, duration : 40 ms (1.00 video frame) Interleave, preload duration : 500 ms

Скриншоты



_________________
Показать сообщения:    

Текущее время: Сегодня 05:41

Часовой пояс: GMT



Вы не можете начинать темы
Вы не можете отвечать на сообщения
Вы не можете редактировать свои сообщения
Вы не можете удалять свои сообщения
Вы не можете голосовать в опросах
Вы не можете прикреплять файлы к сообщениям
Вы не можете скачивать файлы