Важное объявление!
У Нас Все раздачи мультитрекерные, при нуле пиров в релизах, можете смело вставать на закачку!
 
Автор Сообщение

HUNTER

Стаж:
4 года 4 месяца
Сообщений:
56822

Репутация: 101

[+] [-]
Вне форума [Профиль] [ЛС]

Горизонт - Как убить человека
Horizon - How to Kill a Human Being
Страна: Великобритания
Телеканал: BBC
Дата выпуска: 15.01.2008 (сезон 44, эпизод 3)
Жанр: документальный, научно-популярный
Продолжительность: 00:49:14
Перевод: субтитры
Субтитры: русский (перевод: BobbyCat, GematoGen.Tomsk), английский (внешние)
Режиссер: Дайин Петтерле / Diene Petterle
Описание:
Бывший член британского парламента Майкл Портильо, толкает себя на грань жизни и смерти в исследовании науки смертной казни.
В то время как американский Верховный суд рассматривает вопрос о болезненности применения смертельной инъекции, Майкл намеревается найти действительно гуманный способ казни. Для этого он исследует основные способы казни применяемые сегодня: узнает почему заключенные могут загореться на электрическом стуле и каким образом можно испортить повешение, а также вдохнет токсичный газ чтобы почувствовать ужас газовой камеры.
Вооружившись поразительными данными Майкл найдет совершенно новый способ смертной казни.
Окажется ли он прав? Есть только один способ проверить - испытать его на себе.

Скриншоты

Отчет MediaInfo

Общее
Полное имя: BBC.Horizon.2008.How.to.Kill.a.Human.Being.DVBC.XviD.MP3.avi
Формат : AVI
Формат/Информация : Audio Video Interleave
Размер файла : 639 Мбайт
Продолжительность : 49 м.
Режим общего битрейта : Переменный
Общий поток : 1814 Кбит/сек
Видео
Идентификатор : 0
Формат : MPEG-4 Visual
Профиль формата : Advanced Simple@L5
Параметр BVOP формата : 1
Параметр QPel формата : Нет
Параметр GMC формата : Без точки перехода
Параметр матрицы формата : Default (H.263)
Идентификатор кодека : XVID
Идентификатор кодека/Подсказка : XviD
Продолжительность : 49 м.
Битрейт : 1672 Кбит/сек
Ширина : 672 пикселя
Высота : 384 пикселя
Соотношение сторон : 16:9
Частота кадров : 25,000 кадров/сек
Цветовое пространство : YUV
Субдискретизация насыщенности : 4:2:0
Битовая глубина : 8 бит
Тип развёртки : Прогрессивная
Метод сжатия : С потерями
Бит/(Пиксели*Кадры) : 0.259
Размер потока : 589 Мбайт (92%)
Библиотека кодирования : XviD 1.2.0.dev47 (UTC 2006-11-01)
Аудио
Идентификатор : 1
Формат : MPEG Audio
Версия формата : Version 1
Профиль формата : Layer 3
Режим : Joint stereo
Расширение режима : MS Stereo
Идентификатор кодека : 55
Идентификатор кодека/Подсказка : MP3
Продолжительность : 49 м.
Вид битрейта : Переменный
Битрейт : 130 Кбит/сек
Номинальный битрейт : 144 Кбит/сек
Каналы : 2 канала
Частота : 48,0 КГц
Метод сжатия : С потерями
Размер потока : 45,6 Мбайт (7%)
Выравнивание : Соединение по промежуткам
Продолжительность промежутка : 24 мс. (0,60 видеокадр)
Время предзагрузки промежутка : 581 мс.
Библиотека кодирования : LAME3.97
Настройки программы : -m j -V 4 -q 2 -lowpass 17.5 --abr 144
Качество: DVBRip
Формат: AVI
Видео: 672x384 (1.75:1), 25 fps, XviD build 47 ~1670 kbps avg, 0.26 bit/pixel
Аудио: 48 kHz, MPEG Layer 3, 2 ch, ~129.52 kbps avg (Английский)

_________________
Показать сообщения:    

Текущее время: Сегодня 21:49

Часовой пояс: GMT



Вы не можете начинать темы
Вы не можете отвечать на сообщения
Вы не можете редактировать свои сообщения
Вы не можете удалять свои сообщения
Вы не можете голосовать в опросах
Вы не можете прикреплять файлы к сообщениям
Вы не можете скачивать файлы