Важное объявление!
У Нас Все раздачи мультитрекерные, при нуле пиров в релизах, можете смело вставать на закачку!
 
Автор Сообщение

HUNTER

Стаж:
4 года 4 месяца
Сообщений:
56839

Репутация: 101

[+] [-]
Вне форума [Профиль] [ЛС]

BBC. Генетический код / The Gene Code
Год выпуска: 2011
Страна: Великобритания
Жанр: Научно-популярный, BBC
Продолжительность: 2 x ~00:48:50
Перевод: Профессиональный (многоголосый закадровый, DaVinci Learning)
Режиссер: Адам Резерфорд / Adam Rutherford
Описание: Наша планета полна формами жизни. В каждом живом существе находится самая потрясающая молекула в мире - ДНК. В ней находится код нашей жизни и жизни каждого существа на земле. Она просто чудесна. За десятилетие в понимании генокода произошла революция. Генетики завершили расшифровку человеческого генома. Зафиксировано 3 млрд элементов, из которых состоит человеческая ДНК. Можно сказать, что спустя 13 лет, потратив миллbарды долларов, удалось наконец-то прочитать книгу жизни. Но как функционирует книга жизни? Как длинный список нашей ДНК делает нас такими особенными? Как он влияет на нашу внешность, на наш ум, на продолжительность жизни и на судьбу? Как геном формирует нас? На эти и другие вопросы вы найдете ответ, посмотрев этот фильм.
Доп. информация: Очень свежий фильм. В отличие от устаревшего уже на 15 лет "Введения в микробиологию" (изумительный сериал, всем рекомендую) в фильме 2011 года рассказывается много такого, о чём доселе нигде широко не упоминалось. Ну, например, о том, что значительная часть генетической информации хранится не в последовательности оснований, а в геометрии свёртки самой ленты ДНК.
Семпл: http://multi-up.com/953172
качество: SATRip
формат: AVI
Видео: XviD, 720x400, (16:9), ~1800 Кбит/с, 25 fps
Аудио: AC3, 192 Кбит/c, 48 kHz, 2 ch

Список выпусков/серий

01. Книга нашей жизни / The Book of Life
02. Поиски ключа / Unlocking the Code

MediaInfo

GeneralComplete name : 01. Книга нашей жизни.aviFormat : AVIFormat/Info : Audio Video InterleaveFile size : 697 MiBDuration : 48mn 42sOverall bit rate : 2 002 KbpsWriting application : VirtualDubMod 1.5.10.3 | www.virtualdub-fr.org || (build 2550/release)Writing library : VirtualDubMod build 2550/release
VideoID : 0Format : MPEG-4 VisualFormat profile : Advanced Simple@L5Format settings, BVOP : 2Format settings, QPel : NoFormat settings, GMC : No warppointsFormat settings, Matrix : Default (H.263)Codec ID : XVIDCodec ID/Hint : XviDDuration : 48mn 42sBit rate : 1 800 KbpsWidth : 720 pixelsHeight : 400 pixelsDisplay aspect ratio : 16:9Frame rate : 25.000 fpsColor space : YUVChroma subsampling : 4:2:0Bit depth : 8 bitsScan type : ProgressiveCompression mode : LossyBits/(Pixel*Frame) : 0.250Stream size : 627 MiB (90%)Writing library : XviD 1.2.1 (UTC 2008-12-04)
AudioID : 1Format : AC-3Format/Info : Audio Coding 3Mode extension : CM (complete main)Codec ID : 2000Duration : 48mn 42sBit rate mode : ConstantBit rate : 192 KbpsChannel(s) : 2 channelsChannel positions : Front: L RSampling rate : 48.0 KHzBit depth : 16 bitsCompression mode : LossyStream size : 66.9 MiB (10%)Alignment : Split accross interleavesInterleave, duration : 40 ms (1.00 video frame)Interleave, preload duration : 500 ms
GeneralComplete name : 02. Поиски ключа.aviFormat : AVIFormat/Info : Audio Video InterleaveFile size : 701 MiBDuration : 48mn 56sOverall bit rate : 2 002 KbpsWriting application : VirtualDubMod 1.5.10.3 | www.virtualdub-fr.org || (build 2550/release)Writing library : VirtualDubMod build 2550/release
VideoID : 0Format : MPEG-4 VisualFormat profile : Advanced Simple@L5Format settings, BVOP : 2Format settings, QPel : NoFormat settings, GMC : No warppointsFormat settings, Matrix : Default (H.263)Codec ID : XVIDCodec ID/Hint : XviDDuration : 48mn 56sBit rate : 1 800 KbpsWidth : 720 pixelsHeight : 400 pixelsDisplay aspect ratio : 16:9Frame rate : 25.000 fpsColor space : YUVChroma subsampling : 4:2:0Bit depth : 8 bitsScan type : ProgressiveCompression mode : LossyBits/(Pixel*Frame) : 0.250Stream size : 630 MiB (90%)Writing library : XviD 1.2.1 (UTC 2008-12-04)
AudioID : 1Format : AC-3Format/Info : Audio Coding 3Mode extension : CM (complete main)Codec ID : 2000Duration : 48mn 56sBit rate mode : ConstantBit rate : 192 KbpsChannel(s) : 2 channelsChannel positions : Front: L RSampling rate : 48.0 KHzBit depth : 16 bitsCompression mode : LossyStream size : 67.2 MiB (10%)Alignment : Split accross interleavesInterleave, duration : 40 ms (1.00 video frame)Interleave, preload duration : 500 ms

Скриншоты

- Другие хорошие фильмы на этом трекере: "Лучшие научно-популярные фильмы"-

_________________
Показать сообщения:    

Текущее время: Сегодня 08:01

Часовой пояс: GMT



Вы не можете начинать темы
Вы не можете отвечать на сообщения
Вы не можете редактировать свои сообщения
Вы не можете удалять свои сообщения
Вы не можете голосовать в опросах
Вы не можете прикреплять файлы к сообщениям
Вы не можете скачивать файлы