Важное объявление!
У Нас Все раздачи мультитрекерные, при нуле пиров в релизах, можете смело вставать на закачку!
 
Автор Сообщение

HUNTER

Стаж:
4 года 4 месяца
Сообщений:
56822

Репутация: 101

[+] [-]
Вне форума [Профиль] [ЛС]

BBC. Terry Wogan`s. Время твоей жизни / BBC. Terry Wogan`s. Time of You Life
Дата/Год выпуска: 2013
Страна: Великобритания, BBC
Жанр: Документальный, познавательный, исследование
Продолжительность: 00:49:17
Перевод: Профессиональный (двухголосый закадровый)
Русские субтитры: нет
Режиссер: Джиллз Харрисон / Giles Harrison
Описание: Время – деньги, привыкли говорить мы. И, отчасти, правы: жизнь стремительна, а мы должны успеть сделать многое. Но почему нам так мало отведено на жизнь? С какими законами природы это связано?
Сэмпл: http://sendfile.su/972702
качество: SATRip
формат: AVI
Видео: Xvid, 720x400, 25fps, 1 698 Kbps
Аудио: AC3, 48000Hz, stereo, 192kbps
MediaInfo
L:\DOCUM\BBC. Terry Wogan`s. Время твоей жизни.2013.XviD.SATRip.avi General Complete name : L:\DOCUM\BBC. Terry Wogan`s. Время твоей жизни.2013.XviD.SATRip.avi Format : AVI Format/Info : Audio Video Interleave File size : 670 MiB Duration : 49mn 17s Overall bit rate : 1 900 Kbps Movie name : BBC. Terry Wogan`s. Time of You Life Director : SATRip by Thunder Writing application : VirtualDubMod 1.5.10.3 | www.virtualdub-fr.org || (build 2550/release) Original source form/Name : Documentary Video #0 ID : 0 Format : MPEG-4 Visual Format profile : Advanced Simple@L5 Format settings, BVOP : Yes Format settings, QPel : No Format settings, GMC : No warppoints Format settings, Matrix : Default (H.263) Codec ID : XVID Codec ID/Hint : XviD Duration : 49mn 17s Bit rate : 1 698 Kbps Width : 720 pixels Height : 400 pixels Display aspect ratio : 16:9 Frame rate : 25.000 fps Color space : YUV Chroma subsampling : 4:2:0 Bit depth : 8 bits Scan type : Progressive Bits/(Pixel*Frame) : 0.236 Stream size : 599 MiB (89%) Writing library : XviD 1.2.1 (UTC 2008-12-04) Audio #1 ID : 1 Format : AC-3 Format/Info : Audio Coding 3 Mode extension : CM (complete main) Codec ID : 2000 Duration : 49mn 17s Bit rate mode : Constant Bit rate : 192 Kbps Channel(s) : 2 channels Channel positions : Front: L R Sampling rate : 48.0 KHz Bit depth : 16 bits Stream size : 67.7 MiB (10%) Alignment : Split accross interleaves Interleave, duration : 40 ms (1.00 video frame) Interleave, preload duration : 500 ms
Скриншоты

_________________
Показать сообщения:    

Текущее время: Сегодня 22:19

Часовой пояс: GMT



Вы не можете начинать темы
Вы не можете отвечать на сообщения
Вы не можете редактировать свои сообщения
Вы не можете удалять свои сообщения
Вы не можете голосовать в опросах
Вы не можете прикреплять файлы к сообщениям
Вы не можете скачивать файлы