Важное объявление!
У Нас Все раздачи мультитрекерные, при нуле пиров в релизах, можете смело вставать на закачку!
 
Автор Сообщение

HUNTER

Стаж:
4 года 4 месяца
Сообщений:
56790

Репутация: 101

[+] [-]
Вне форума [Профиль] [ЛС]

BBC. Horizon. Как перестать тревожиться и стать счастливым? / Don’t Worry, Be Happy
Дата/Год выпуска: 2013
Страна: Великобритания, BBC
Жанр: Документальный, научно-познавательный
Продолжительность: 00:51:19
Перевод: Профессиональный (дублированный)
Русские субтитры: нет
Оригинальная аудиодорожка: нет
Режиссер: Хелен Никсон / Helen Nixon
Описание: Мы живем в непростое время: конкуренция на работе, экономические проблемы, нехватка времени. Из-за депрессивного состояния сил на работу не остается, возникает апатия и хроническая усталость. Фильм посвящен способам преодоления стрессов и тому, как активизировать в себе здравый смысл.
Семпл: http://sendfile.su/1069495
качество: SATRip
формат: AVI
Видео: Xvid 720x400 25fps 1 750 Kbps
Аудио: AC3 48000Hz stereo 192kbps

MediaInfo

C:\Users\Dmitriy\Documents\Новая папка (6)\BBC. Как перестать тревожиться и стать счастливым.2013XviD.SATRip.avi General Complete name : C:\Users\Dmitriy\Documents\Новая папка (6)\BBC. Как перестать тревожиться и стать счастливым.2013XviD.SATRip.avi Format : AVI Format/Info : Audio Video Interleave File size : 716 MiB Duration : 51mn 19s Overall bit rate : 1 952 Kbps Movie name : BBC. Don’t Worry, Be Happy Director : SATRip by Thunder Writing application : VirtualDubMod 1.5.10.3 | www.virtualdub-fr.org || (build 2550/release) Original source form/Name : Documentary Video #0 ID : 0 Format : MPEG-4 Visual Format profile : Advanced Simple@L5 Format settings, BVOP : Yes Format settings, QPel : No Format settings, GMC : No warppoints Format settings, Matrix : Default (H.263) Codec ID : XVID Codec ID/Hint : XviD Duration : 51mn 19s Bit rate : 1 750 Kbps Width : 720 pixels Height : 400 pixels Display aspect ratio : 16:9 Frame rate : 25.000 fps Color space : YUV Chroma subsampling : 4:2:0 Bit depth : 8 bits Scan type : Progressive Bits/(Pixel*Frame) : 0.243 Stream size : 642 MiB (90%) Writing library : XviD 1.2.1 (UTC 2008-12-04) Audio #1 ID : 1 Format : AC-3 Format/Info : Audio Coding 3 Mode extension : CM (complete main) Codec ID : 2000 Duration : 51mn 19s Bit rate mode : Constant Bit rate : 192 Kbps Channel(s) : 2 channels Channel positions : Front: L R Sampling rate : 48.0 KHz Bit depth : 16 bits Stream size : 70.5 MiB (10%) Alignment : Split accross interleaves Interleave, duration : 40 ms (1.00 video frame) Interleave, preload duration : 500 ms

Скриншоты



_________________
Показать сообщения:    

Текущее время: Сегодня 16:58

Часовой пояс: GMT



Вы не можете начинать темы
Вы не можете отвечать на сообщения
Вы не можете редактировать свои сообщения
Вы не можете удалять свои сообщения
Вы не можете голосовать в опросах
Вы не можете прикреплять файлы к сообщениям
Вы не можете скачивать файлы