Важное объявление!
У Нас Все раздачи мультитрекерные, при нуле пиров в релизах, можете смело вставать на закачку!
 
Автор Сообщение

HUNTER

Стаж:
4 года 4 месяца
Сообщений:
56848

Репутация: 101

[+] [-]
Вне форума [Профиль] [ЛС]

BBC: Horizon. Бессмертие. Как правильно стареть? / A Horizon Guide To Ageing____________________________________________________________________________________________________________
Год выпуска: 2013
Страна: Великобритания, BBC
Жанр: документальный, научно-познавательный
Продолжительность: 00:50:56
Перевод: Профессиональный (двухголосый закадровый)
Русские субтитры: нет
Оригинальная аудиодорожка: нет
Телеканал: BBC
Описание: Самая древняя мечта человечества - бессмертие. Мы хотим жить в мире, в котором не будем стареть, а смерть наступит только по нашему желанию. Некоторые ученые верят, что это вполне реально в будущем. Поскольку теперь понятен механизм нашего старения и смерти. Кое-кто из ученых полагает, что знает, как повернуть оба процесса вспять и сделать нас бессмертными.
Качество видео: SATRip [сэмпл]
Видеокодек: XviD
Аудиокодек: AC3
Видео: 720x400 (1.80:1), 25 fps, XviD build 50, 1696 kbps avg, 0.23 bit/pixel
Аудио: 48 kHz, AC3 Dolby Digital, 2/0 (L,R) ch, 192 kbps
СкриншотыMediaInfo

Общее
Полное имя : C:\Users\User\Desktop\Бессмертие. Как правильно стареть - A Horizon. Guide To Ageing (2012).avi
Формат : AVI
Формат/Информация : Audio Video Interleave
Размер файла : 692 Мбайт
Продолжительность : 50 м.
Общий поток : 1898 Кбит/сек
Название фильма : BBC Immortal: A Horizon Guide To Ageing
Режиссёр : SATRip by Thunder
Программа кодирования : VirtualDubMod 1.5.10.3 | www.virtualdub-fr.org || (build 2550/release)
Формат оригинала/Имя : Documentary
Видео
Идентификатор : 0
Формат : MPEG-4 Visual
Профиль формата : Advanced Simple@L5
Параметр BVOP формата : 2
Параметр QPel формата : Нет
Параметр GMC формата : Без точки перехода
Параметр матрицы формата : Default (H.263)
Идентификатор кодека : XVID
Идентификатор кодека/Подсказка : XviD
Продолжительность : 50 м.
Битрейт : 1697 Кбит/сек
Ширина : 720 пикселей
Высота : 400 пикселей
Соотношение сторон : 16:9
Частота кадров : 25,000 кадров/сек
Цветовое пространство : YUV
Субдискретизация насыщенности : 4:2:0
Битовая глубина : 8 бит
Тип развёртки : Прогрессивная
Метод сжатия : С потерями
Бит/(Пиксели*Кадры) : 0.236
Размер потока : 618 Мбайт (89%)
Библиотека кодирования : XviD 1.2.1 (UTC 2008-12-04)
Аудио
Идентификатор : 1
Формат : AC-3
Формат/Информация : Audio Coding 3
Расширение режима : CM (complete main)
Параметр Endianness формата : Big
Идентификатор кодека : 2000
Продолжительность : 50 м.
Вид битрейта : Постоянный
Битрейт : 192 Кбит/сек
Каналы : 2 канала
Расположение каналов : Front: L R
Частота : 48,0 КГц
Битовая глубина : 16 бит
Метод сжатия : С потерями
Размер потока : 70,0 Мбайт (10%)
Выравнивание : Разделение по промежуткам
Продолжительность промежутка : 40 мс. (1,00 видеокадр)
Время предзагрузки промежутка : 500 мс.

_________________
Показать сообщения:    

Текущее время: Сегодня 03:57

Часовой пояс: GMT



Вы не можете начинать темы
Вы не можете отвечать на сообщения
Вы не можете редактировать свои сообщения
Вы не можете удалять свои сообщения
Вы не можете голосовать в опросах
Вы не можете прикреплять файлы к сообщениям
Вы не можете скачивать файлы
Наши партнеры: интернет магазин Ивановского трикотажа textilla.ru