BBC. Horizon. Как победить хакеров / Horizon: Defeating the Hackers / Сезон: 50 / Серия: 3 из 15 (Кате Дарт / Kate Dart) [2013, Документальный, научно-познавательный, SATRip] :: Ивановский Торрент трекер
Важное объявление!
У Нас Все раздачи мультитрекерные, при нуле пиров в релизах, можете смело вставать на закачку!
Статистика раздачи
Размер:     |    Зарегистрирован:     |    Скачан:     |   
Нет
 
     
 
 
Автор Сообщение

HUNTER

Стаж:
4 года 11 месяцев
Сообщений:
66066

Репутация: 101

[+] [-]
Вне форума [Профиль] [ЛС]

BBC. Horizon. Как победить хакеров / Horizon: Defeating the Hackers
Дата/Год выпуска: 2013
Страна: Великобритания, BBC
Жанр: Документальный, научно-познавательный
Продолжительность: 00:49:11
Перевод: Профессиональный (дублированный)
Русские субтитры: нет
Оригинальная аудиодорожка: нет
Режиссер: Кате Дарт / Kate Dart
Описание: Сегодня любой школьник или студент первого курса может взломать секретную базу данных. Хакером быть модно. Они легко справляются с хитроумными системами защиты и достают информацию из закрытых архивов. Одни занимаются этим ради спортивного интереса, другие получают десятки тысяч долларов дохода, третьи воспринимают хакерство как форму социального контроля. При этом государству наносится значительный ущерб. Есть ли способ решить эту проблему?
Семпл: http://sendfile.su/1054643
качество: SATRip
формат: AVI
Видео: Xvid 720x400 25fps 1 750 Kbps
Аудио: AC3 48000Hz stereo 192kbps

MediaInfo

C:\Users\Dmitriy\Documents\BBC.Horizon.(50.sezon.03.serija.iz.15).Как победить хакеров.2013.XviD.SATRip..avi General Complete name : C:\Users\Dmitriy\Documents\BBC.Horizon.(50.sezon.03.serija.iz.15).Как победить хакеров.2013.XviD.SATRip..avi Format : AVI Format/Info : Audio Video Interleave File size : 687 MiB Duration : 49mn 11s Overall bit rate : 1 951 Kbps Movie name : BBC. Horizon: Defeating the Hackers Director : SATRip by Thunder Writing application : VirtualDubMod 1.5.10.3 | www.virtualdub-fr.org || (build 2550/release) Original source form/Name : Documentary Video #0 ID : 0 Format : MPEG-4 Visual Format profile : Advanced Simple@L5 Format settings, BVOP : Yes Format settings, QPel : No Format settings, GMC : No warppoints Format settings, Matrix : Default (H.263) Codec ID : XVID Codec ID/Hint : XviD Duration : 49mn 11s Bit rate : 1 750 Kbps Width : 720 pixels Height : 400 pixels Display aspect ratio : 16:9 Frame rate : 25.000 fps Color space : YUV Chroma subsampling : 4:2:0 Bit depth : 8 bits Scan type : Progressive Bits/(Pixel*Frame) : 0.243 Stream size : 616 MiB (90%) Writing library : XviD 1.2.1 (UTC 2008-12-04) Audio #1 ID : 1 Format : AC-3 Format/Info : Audio Coding 3 Mode extension : CM (complete main) Codec ID : 2000 Duration : 49mn 11s Bit rate mode : Constant Bit rate : 192 Kbps Channel(s) : 2 channels Channel positions : Front: L R Sampling rate : 48.0 KHz Bit depth : 16 bits Stream size : 67.6 MiB (10%) Alignment : Split accross interleaves Interleave, duration : 40 ms (1.00 video frame) Interleave, preload duration : 500 ms

Скриншоты



_________________
Показать сообщения:    

Текущее время: Сегодня 17:33

Часовой пояс: GMT



Вы не можете начинать темы
Вы не можете отвечать на сообщения
Вы не можете редактировать свои сообщения
Вы не можете удалять свои сообщения
Вы не можете голосовать в опросах
Вы не можете прикреплять файлы к сообщениям
Вы не можете скачивать файлы