Ивановский Торрент трекер
Яндекс.Погода
 

[Цитировать]
HUNTER

BBC: Horizon. В поисках сознания / The Secret You____________________________________________________________________________________________________________ Год выпуска: 2009
Страна: Великобритания, BBC
Жанр: документальный, научно-познавательный
Продолжительность: 00:52:22
Перевод: Профессиональный (одноголосый закадровый)
Русские субтитры: нет
Оригинальная аудиодорожка: нет
Телеканал: BBC
Описание:Воспользовавшись помощью анестезиолога, Дженнифер Анистон и ученого, вооруженного кувалдой, профессор Маркус дю Сотой ищет ответ на вопрос о том, что такое «я». Для этого он подвергает себя нескольким интересным и необычным экспериментам. Маркус узнает, в каком возрасте появляется наше самосознание и обладают ли им другие живые существа. Он усыпляет свое сознание в опыте с использованием анестезии, чтобы лучше понять его, затем испытывает внетелесный опыт, чтобы локализовать свое «я».
Качество видео: SATRip [сэмпл]
Видеокодек: XviD
Аудиокодек: MP3
Видео: 704x400 (1.76:1), 25 fps, XviD build 63, 1495 kbps avg, 0.21 bit/pixel
Аудио: 48 kHz, MPEG Layer 3, 2 ch, 128.00 kbps avg
СкриншотыMediaInfo

Общее
Полное имя : C:\Users\User\Desktop\BBC.Horizon.The.Secret.You.avi
Формат : AVI
Формат/Информация : Audio Video Interleave
Размер файла : 613 Мбайт
Продолжительность : 52 м.
Общий поток : 1637 Кбит/сек
Программа кодирования : Lavf52.61.0
Видео
Идентификатор : 0
Формат : MPEG-4 Visual
Профиль формата : Simple@L3
Параметр BVOP формата : Нет
Параметр QPel формата : Нет
Параметр GMC формата : Без точки перехода
Параметр матрицы формата : Default (H.263)
Идентификатор кодека : XVID
Идентификатор кодека/Подсказка : XviD
Продолжительность : 52 м.
Битрейт : 1496 Кбит/сек
Ширина : 704 пикселя
Высота : 400 пикселей
Соотношение сторон : 16:9
Частота кадров : 25,000 кадров/сек
Цветовое пространство : YUV
Субдискретизация насыщенности : 4:2:0
Битовая глубина : 8 бит
Тип развёртки : Прогрессивная
Метод сжатия : С потерями
Бит/(Пиксели*Кадры) : 0.213
Размер потока : 560 Мбайт (91%)
Библиотека кодирования : XviD 63
Аудио
Идентификатор : 1
Формат : MPEG Audio
Версия формата : Version 1
Профиль формата : Layer 3
Режим : Joint stereo
Расширение режима : MS Stereo
Идентификатор кодека : 55
Идентификатор кодека/Подсказка : MP3
Продолжительность : 52 м.
Вид битрейта : Постоянный
Битрейт : 128 Кбит/сек
Каналы : 2 канала
Частота : 48,0 КГц
Метод сжатия : С потерями
Размер потока : 47,9 Мбайт (8%)
Выравнивание : Соединение по промежуткам
Продолжительность промежутка : 24 мс. (0,60 видеокадр)
Библиотека кодирования : LAME3.99.‹љОP4=SH§Wѓ


Показать сообщения:    

Текущее время: 17-Дек 15:58

Часовой пояс: UTC ± 0


Вы не можете начинать темы
Вы не можете отвечать на сообщения
Вы не можете редактировать свои сообщения
Вы не можете удалять свои сообщения
Вы не можете голосовать в опросах
Вы не можете прикреплять файлы к сообщениям
Вы не можете скачивать файлы

!ВНИМАНИЕ!
Сайт не предоставляет электронные версии произведений, а занимается лишь коллекционированием и каталогизацией ссылок, присылаемых и публикуемых на форуме нашими читателями. Если вы являетесь правообладателем какого-либо представленного материала и не желаете, чтобы ссылка на него находилась в нашем каталоге, свяжитесь с нами, и мы незамедлительно удалим ее. Файлы для обмена на трекере предоставлены пользователями сайта, и администрация не несет ответственности за их содержание. Просьба не заливать файлы, защищенные авторскими правами, а также файлы нелегального содержания!