Важное объявление!
У Нас Все раздачи мультитрекерные, при нуле пиров в релизах, можете смело вставать на закачку!
Статистика раздачи
Размер:     |    Зарегистрирован:     |    Скачан:     |   
Нет
 
     
 
 
Автор Сообщение

HUNTER

Стаж:
5 лет
Сообщений:
67958

Репутация: 101

[+] [-]
Вне форума [Профиль] [ЛС]

BBC. 24 часа на Земле. Мир пробуждается ото сна / 24 Hours on Earth
Дата/Год выпуска: 2013
Страна: Великобритания, BBC
Жанр: Документальный, флора, фауна
Продолжительность: 00:48:30
Перевод: Профессиональный (дублированный)
Русские субтитры: нет
Оригинальная аудиодорожка: нет
Режиссер: Джеймс Хонейборн / James Honeyborne
Описание: Солнце - творец ежедневной жизненной гармонии на Земле, участник всех событий, происходящих на планете. Его расположение судьбоностно в любой момент и в любой точке. Оно открывает невероятные возможности для одних и несет гибель другим. Прохождение Солнца по небосводу регулирует жизнь животных на всей планете. От их ответного поведения зависит дальнейшая судьба, победы и поражения, жизнь и смерть. Это обычный день на нашей необычной планете.
Семпл: http://sendfile.su/1142189
качество: SATRip
формат: AVI
Видео: Xvid 720x400 25fps 1 750 Kbps
Аудио: AC3 48000Hz stereo 192kbps

MediaInfo

D:\Temp\BBC. 24 часа на Земле. Мир пробуждается ото сна.2013.XviD.SATRip.avi General Complete name : D:\Temp\BBC. 24 часа на Земле. Мир пробуждается ото сна.2013.XviD.SATRip.avi Format : AVI Format/Info : Audio Video Interleave File size : 677 MiB Duration : 48mn 30s Overall bit rate : 1 951 Kbps Movie name : BBC. 24 Hours on Earth Director : SATRip by Thunder Writing application : VirtualDubMod 1.5.10.3 | www.virtualdub-fr.org || (build 2550/release) Original source form/Name : Documentary Video #0 ID : 0 Format : MPEG-4 Visual Format profile : Advanced Simple@L5 Format settings, BVOP : Yes Format settings, QPel : No Format settings, GMC : No warppoints Format settings, Matrix : Default (H.263) Codec ID : XVID Codec ID/Hint : XviD Duration : 48mn 30s Bit rate : 1 750 Kbps Width : 720 pixels Height : 400 pixels Display aspect ratio : 16:9 Frame rate : 25.000 fps Color space : YUV Chroma subsampling : 4:2:0 Bit depth : 8 bits Scan type : Progressive Bits/(Pixel*Frame) : 0.243 Stream size : 607 MiB (90%) Writing library : XviD 1.2.1 (UTC 2008-12-04) Audio #1 ID : 1 Format : AC-3 Format/Info : Audio Coding 3 Mode extension : CM (complete main) Codec ID : 2000 Duration : 48mn 30s Bit rate mode : Constant Bit rate : 192 Kbps Channel(s) : 2 channels Channel positions : Front: L R Sampling rate : 48.0 KHz Bit depth : 16 bits Stream size : 66.6 MiB (10%) Alignment : Split accross interleaves Interleave, duration : 40 ms (1.00 video frame) Interleave, preload duration : 500 ms

Скриншоты



_________________
Показать сообщения:    

Текущее время: Сегодня 02:35

Часовой пояс: GMT



Вы не можете начинать темы
Вы не можете отвечать на сообщения
Вы не можете редактировать свои сообщения
Вы не можете удалять свои сообщения
Вы не можете голосовать в опросах
Вы не можете прикреплять файлы к сообщениям
Вы не можете скачивать файлы